<?xml version="1.0" standalone="no"?>
<!DOCTYPE svg PUBLIC "-//W3C//DTD SVG 1.1//EN" "http://www.w3.org/Graphics/SVG/1.1/DTD/svg11.dtd" >
<svg>
<metadata>
Created by FontForge 20090622 at Fri Dec 14 11:25:28 2018
 By deploy user
Created by Fabian De Smet
</metadata>
<defs>
<font id="Butler" horiz-adv-x="693" >
  <font-face 
    font-family="Butler"
    font-weight="400"
    font-stretch="normal"
    units-per-em="1000"
    panose-1="2 7 8 3 8 7 6 2 3 3"
    ascent="735"
    descent="-265"
    x-height="462"
    cap-height="704"
    bbox="-146 -265 1055 979"
    underline-thickness="50"
    underline-position="-50"
    unicode-range="U+0020-U+FB02"
  />
<missing-glyph horiz-adv-x="507" 
d="M-1 704h508v-704h-508v704zM223 352l-174 268v-535zM86 654l167 -256l167 256h-334zM253 307l-167 -257h334zM283 352l174 -267v535z" />
    <glyph glyph-name="f_i" unicode="fi" horiz-adv-x="524" 
d="M486 8v-8h-168v8q27 8 33 23t6 57v296q0 65 -50 65h-137v-364q0 -40 10.5 -56t37.5 -21v-8h-175v8q27 6 33.5 20.5t6.5 56.5v364h-64l-2 13h66v11q0 151 55.5 211.5t168.5 60.5q48 0 84.5 -21.5t44.5 -60.5t-8 -60q-13 -17 -35.5 -20t-38.5 10q-18 14 -20.5 35.5
t11.5 39.5q17 20 34 19q14 -1 6 13q-14 25 -59 31q-9 1 -19 1q-17 0 -31 -2.5t-35 -16t-35.5 -38t-25 -73.5t-10.5 -116v-24h138h137v-374q0 -43 7.5 -58t33.5 -22z" />
    <glyph glyph-name="f_l" unicode="fl" horiz-adv-x="519" 
d="M496 13v-13h-168v13q27 8 33 21t6 54v558q0 59 -69 70q-12 4 -26.5 2t-30 -6t-30 -20.5t-25.5 -41t-18 -68t-7 -100.5v-20h107l-2 -13h-105v-364q0 -40 10.5 -53.5t38.5 -19.5v-12h-176v12q27 6 33.5 19.5t6.5 53.5v364h-65l-1 13h66v40q0 124 45 183.5t124 59.5
q59 0 100 -25l112 26v-658q0 -42 7 -55t34 -20z" />
    <glyph glyph-name=".notdef" horiz-adv-x="507" 
d="M-1 704h508v-704h-508v704zM223 352l-174 268v-535zM86 654l167 -256l167 256h-334zM253 307l-167 -257h334zM283 352l174 -267v535z" />
    <glyph glyph-name=".null" horiz-adv-x="0" 
 />
    <glyph glyph-name="nonmarkingreturn" horiz-adv-x="333" 
 />
    <glyph glyph-name="space" unicode=" " horiz-adv-x="250" 
 />
    <glyph glyph-name="exclam" unicode="!" horiz-adv-x="294" 
d="M172 189h-48l-22 556h93zM206 50q0 25 -17 42t-42 17q-24 0 -41.5 -17t-17.5 -42q0 -24 17.5 -41.5t41.5 -17.5q25 0 42 17.5t17 41.5z" />
    <glyph glyph-name="quotedbl" unicode="&#x22;" horiz-adv-x="474" 
d="M313 376l-25 328h96l-24 -328h-47zM127 376l-26 328h96l-24 -328h-46z" />
    <glyph glyph-name="numbersign" unicode="#" horiz-adv-x="702" 
d="M447 478h-160l-40 -178h159zM653 478h-143l-41 -178h121v-59h-134l-55 -241h-63l55 241h-160l-55 -241h-63l55 241h-130v59h144l40 178h-121v59h134l49 209h63l-48 -209h159l49 209h63l-49 -209h130v-59z" />
    <glyph glyph-name="dollar" unicode="$" horiz-adv-x="538" 
d="M276 4q60 2 94.5 31t38.5 68.5t-15.5 81.5t-58.5 70l-59 38v-289zM248 436v264q-40 -1 -72 -24.5t-44.5 -58t6 -77.5t71.5 -78zM374 354q49 -32 80 -69.5t42 -74t6.5 -71.5t-24.5 -67q-13 -15 -22.5 -23.5t-33.5 -24t-61 -24t-85 -9.5v-121h-28v121q-62 3 -113.5 17
t-72.5 26l-20 13v192h8q9 -99 53.5 -161.5t144.5 -72.5v307l-79 51q-199 132 -109 272q2 3 6 8.5t20.5 18.5t36 23.5t53 19t72.5 8.5v123h28v-123q57 -3 107 -14.5t72 -22.5l22 -10v-169h-9q-21 191 -192 202v-281z" />
    <glyph glyph-name="percent" unicode="%" horiz-adv-x="975" 
d="M709 37q37 0 53.5 32.5t16.5 130.5q0 99 -17.5 134.5t-52.5 35.5q-37 0 -54 -35.5t-17 -134.5q0 -97 17 -130t54 -33zM709 383q39 0 66.5 -16t41.5 -44t20 -57.5t6 -65.5q0 -176 -134 -176t-134 176q0 183 134 183zM205 495q0 -97 17 -130t53 -33q38 0 54.5 32.5
t16.5 130.5t-17.5 134t-53.5 36t-53 -35.5t-17 -134.5zM409 495q0 -176 -134 -176t-134 176q0 183 134 183t134 -183zM746 704l-456 -704h-53l456 704h53z" />
    <glyph glyph-name="ampersand" unicode="&#x26;" horiz-adv-x="788" 
d="M298 720q-46 -17 -53.5 -72.5t28.5 -108.5l71 -103q62 39 86.5 89.5t17 91.5t-34.5 74q-22 23 -53 31.5t-62 -2.5zM188 95q31 -37 80 -47.5t98 13t73 79.5l-166 240l-56 -35q-32 -22 -53 -59t-18.5 -90t42.5 -101zM721 101h13q-1 -50 -31.5 -78.5t-70.5 -31.5
q-10 -1 -25 -0.5t-49 12.5t-51 38l-58 87q-13 -42 -53.5 -77t-90.5 -51.5t-105 -3t-92 61.5q-30 38 -37 77.5t4 72t34 62.5t48 51t52 36l56 34l-50 74q-70 101 -46 180.5t112 95.5q94 16 144 -41q18 -21 28 -50t9.5 -66.5t-28.5 -80t-82 -79.5l134 -198q40 100 119 118
q39 8 62 -11q15 -12 17.5 -32.5t-12.5 -38.5q-14 -16 -34.5 -17.5t-37.5 11.5q-15 13 -17 34q0 14 -22 7q-36 -12 -59 -62q-4 -9 -8 -20l79 -114q14 -20 34 -32t33 -13l13 -2q61 0 68 47z" />
    <glyph glyph-name="quotesingle" unicode="'" horiz-adv-x="242" 
d="M100 376l-25 328h96l-24 -328h-47z" />
    <glyph glyph-name="parenleft" unicode="(" horiz-adv-x="320" 
d="M308 746l12 -11q-152 -180 -152 -483q0 -310 150 -445l-12 -12q-92 52 -159.5 184t-67.5 276q0 143 68.5 285t160.5 206z" />
    <glyph glyph-name="parenright" unicode=")" horiz-adv-x="321" 
d="M-3 735l12 11q92 -64 160.5 -206t68.5 -285q0 -144 -67.5 -276t-159.5 -184l-12 12q150 135 150 445q0 303 -152 483z" />
    <glyph glyph-name="asterisk" unicode="*" horiz-adv-x="544" 
d="M478 525l-183 -34l129 -134l-64 -47l-89 164l-89 -164l-63 47l129 134l-184 34l25 75l167 -81l-25 185h80l-25 -185l168 81z" />
    <glyph glyph-name="plus" unicode="+" horiz-adv-x="715" 
d="M657 344v-68h-267v-276h-67v276h-267v68h267v275h67v-275h267z" />
    <glyph glyph-name="comma" unicode="," horiz-adv-x="227" 
d="M78 -126l-6 8q31 22 44.5 49t11.5 44t-11 18q-24 3 -39 17q-17 17 -17.5 41.5t16.5 41.5t41.5 17t41.5 -17q24 -31 19 -72t-28 -78q-30 -47 -73 -69z" />
    <glyph glyph-name="hyphen" unicode="-" horiz-adv-x="444" 
d="M379 220h-315v68h315v-68z" />
    <glyph glyph-name="period" unicode="." horiz-adv-x="222" 
d="M114 -5q-25 0 -42 17t-17 42t17 42.5t42 17.5q24 0 41.5 -17.5t17.5 -42.5t-17.5 -42t-41.5 -17z" />
    <glyph glyph-name="slash" unicode="/" horiz-adv-x="412" 
d="M393 725l-308 -746h-71l308 746h71z" />
    <glyph glyph-name="zero" unicode="0" horiz-adv-x="609" 
d="M465 346q0 354 -161 354q-76 0 -119 -78.5t-43 -275.5q0 -102 12.5 -171.5t36 -105.5t50.5 -50.5t63 -14.5q37 0 64 14.5t50 50.5t35 105.5t12 171.5zM573 346q0 -355 -269 -355q-270 0 -270 355q0 56 6.5 104.5t25 98.5t47.5 85t78 57t113 22t112.5 -22t77.5 -57
t47.5 -85t25 -98.5t6.5 -104.5z" />
    <glyph glyph-name="one" unicode="1" horiz-adv-x="385" 
d="M324 12v-12h-246v12q19 0 30.5 2t25 9t20 24t6.5 43v477q0 81 -92 9l-8 11l154 126h33v-623q0 -27 6.5 -44t19.5 -24t23 -8.5t28 -1.5z" />
    <glyph glyph-name="two" unicode="2" horiz-adv-x="476" 
d="M427 144h13l-40 -144h-362l221 332q92 138 45 229q-29 59 -98 69t-115 -37q-28 -28 -36 -71l-15 3q3 54 23.5 93.5t47 56.5t53 27t44.5 10l18 1q74 0 123 -49t49 -118q0 -32 -16.5 -68.5t-36 -65t-68.5 -94.5l-60.5 -86.5l-68.5 -101.5l-29 -43h215q62 0 93 57z" />
    <glyph glyph-name="three" unicode="3" horiz-adv-x="501" 
d="M53 48q-23 23 -10 57q8 22 29 31t42 1q22 -8 31 -29t1 -43q-10 -22 -28 -28q-5 -1 4 -9t35.5 -16t62.5 -8q76 0 112 46.5t29 132.5q-2 26 -12 51t-30.5 51t-59.5 44t-91 22v14q73 12 111.5 60t33 103t-48.5 91q-23 20 -56 25t-63.5 -4.5t-54.5 -33.5t-30 -57l-15 2
q3 38 16 68t33.5 46.5t40 27t42.5 14.5t33 5t19 1q59 0 103.5 -36.5t59.5 -86.5t-10 -107.5t-92 -95.5q74 -21 116.5 -70.5t44.5 -106.5q2 -62 -19.5 -107t-58.5 -68t-75 -33.5t-77 -10.5q-111 0 -168 57z" />
    <glyph glyph-name="four" unicode="4" horiz-adv-x="525" 
d="M294 256v333l-197 -292q-13 -20 -14 -29t5 -10.5t23 -1.5h183zM490 203h-97v-82q0 -38 5 -61t17.5 -33t22.5 -12t30 -2v-13h-249v13q19 0 30 2.5t23 11.5t17 31t5 58v87h-267v15l328 490l38 -4v-448h97v-53z" />
    <glyph glyph-name="five" unicode="5" horiz-adv-x="535" 
d="M482 243q6 -64 -14.5 -114.5t-59 -79.5t-85 -43.5t-96.5 -14.5q-109 0 -163 58q-24 26 -13 59q7 22 28.5 32.5t44.5 2.5q22 -7 32 -28.5t2 -44.5q-7 -22 -29 -29q-10 -4 8 -16q29 -21 90 -21q95 0 148.5 63t26.5 150q-21 72 -109.5 111.5t-239.5 7.5l60 368h346l-27 -93
h-318l-31 -186q177 40 283 -19t116 -163z" />
    <glyph glyph-name="six" unicode="6" horiz-adv-x="546" 
d="M403 200q0 104 -33 151t-82 47q-59 0 -99.5 -35t-40.5 -84q0 -143 31 -209t98 -66q61 0 93.5 43.5t32.5 152.5zM503 218q0 -113 -59.5 -170t-166.5 -57q-235 0 -235 327q0 167 76 281t193 114q104 0 134 -65q7 -12 5 -29t-12 -29q-14 -18 -37 -20.5t-41 11.5t-20.5 37.5
t11.5 40.5q18 22 36 19l2 1q-2 10 -32 16q-14 3 -31 4q-81 5 -129.5 -87t-48.5 -292q40 113 168 113q67 0 111 -33.5t60 -79.5t16 -102z" />
    <glyph glyph-name="seven" unicode="7" horiz-adv-x="551" 
d="M64 704h451l-51 -87q-90 -160 -127 -321.5t-37 -295.5h-105q10 152 65 292.5t190 324.5h-302q-36 0 -56 -13.5t-34 -44.5h-13z" />
    <glyph glyph-name="eight" unicode="8" horiz-adv-x="540" 
d="M394 551q-1 82 -37.5 115.5t-90.5 33.5q-47 0 -81.5 -31t-34.5 -83q0 -64 38 -103t122 -73q31 11 58 50t26 91zM278 -9q-242 0 -242 168q0 62 50.5 115t118.5 75q-73 44 -103.5 87.5t-30.5 101.5q0 83 56 129t139 46q89 0 140.5 -42t51.5 -114q0 -46 -38.5 -94t-93.5 -62
q180 -89 180 -212q0 -101 -62.5 -149.5t-165.5 -48.5zM256 320q-23 12 -36 20q-23 -11 -43.5 -27.5t-41.5 -57t-21 -92.5q0 -79 46 -119t118 -40q33 0 63 11.5t54 45.5t24 85q-1 53 -39.5 91t-123.5 83z" />
    <glyph glyph-name="nine" unicode="9" horiz-adv-x="539" 
d="M137 506q0 -104 33 -151t82 -47q59 0 98 35t39 84q0 146 -29.5 209.5t-96.5 63.5q-126 0 -126 -194zM37 489q0 110 60 167t166 57q122 0 177 -80.5t55 -236.5q0 -195 -65 -300t-197 -105q-109 0 -142 70q-16 31 7 58q14 19 37 21.5t41 -12.5q18 -13 20.5 -36.5
t-11.5 -41.5q-17 -19 -36 -19q-7 0 6 -9q22 -16 63 -18q97 -4 134 76.5t37 304.5q-41 -112 -165 -112q-51 0 -89 19t-58.5 51t-30 68.5t-9.5 77.5z" />
    <glyph glyph-name="colon" unicode=":" horiz-adv-x="226" 
d="M114 309q-25 0 -42.5 17.5t-17.5 42.5t17.5 42.5t42.5 17.5q24 0 42 -17.5t18 -42.5t-18 -42.5t-42 -17.5zM114 36q-25 0 -42.5 17t-17.5 42q0 26 17.5 43.5t42.5 17.5q24 0 42 -18t18 -43q0 -24 -18 -41.5t-42 -17.5z" />
    <glyph glyph-name="semicolon" unicode=";" horiz-adv-x="227" 
d="M114 309q-25 0 -42.5 17.5t-17.5 42.5t17.5 42.5t42.5 17.5t42.5 -17.5t17.5 -42.5t-17.5 -42.5t-42.5 -17.5zM74 -81q43 22 73 69q23 37 28 78t-19 72q-17 17 -41.5 17t-41.5 -17t-16.5 -41.5t17.5 -41.5q15 -14 39 -17q9 -1 11 -18t-11.5 -44t-44.5 -49z" />
    <glyph glyph-name="less" unicode="&#x3c;" horiz-adv-x="600" 
d="M144 266l409 -213v-69l-507 260v43l507 260v-70z" />
    <glyph glyph-name="equal" unicode="=" horiz-adv-x="613" 
d="M567 349h-511v61h511v-61zM567 124h-511v61h511v-61z" />
    <glyph glyph-name="greater" unicode="&#x3e;" horiz-adv-x="600" 
d="M47 53l409 213l-409 211v70l507 -260v-43l-507 -260v69z" />
    <glyph glyph-name="question" unicode="?" horiz-adv-x="576" 
d="M329 58q0 -26 -19 -44.5t-45 -18.5t-44.5 18.5t-18.5 44.5t18.5 44.5t44.5 18.5t45 -18.5t19 -44.5zM335 334q-77 -32 -69 -129l-20 -3q-15 100 52 157q29 25 45 43t29 59.5t8 96.5q-5 54 -27 90t-54 49t-67 13t-68 -13q-36 -14 -35 -35q1 -10 9 -11q19 -3 33 -21
q12 -18 8 -39.5t-21 -34.5q-17 -12 -39 -8t-35 22q-15 21 -5 54q5 20 25 45t52 39q83 33 155 27t122.5 -53.5t53.5 -119.5q2 -51 -12.5 -93t-40.5 -68t-49.5 -41.5t-49.5 -25.5z" />
    <glyph glyph-name="at" unicode="@" horiz-adv-x="875" 
d="M519 74q1 7 19 85t21 98q0 11 2.5 36t-12 50.5t-44.5 25.5q-47 0 -85.5 -47t-51.5 -122q-14 -82 10 -121.5t66 -43.5q22 -2 41 8t27 21zM525 604q88 -4 158 -46t108.5 -125.5t25.5 -192.5q-7 -61 -28.5 -108t-47.5 -73t-58.5 -42t-57.5 -21t-49 -5q-33 0 -49 16t-12 43
q-7 -11 -20 -22.5t-41.5 -24t-61.5 -12.5q-58 0 -89 49.5t-25 115.5q3 38 17.5 77t39.5 74t66 56.5t90 21.5q14 0 26 -2t21 -5.5t16 -7.5t11.5 -8t7.5 -7.5t5 -5.5l1 -2l6 26l70 -1q-55 -263 -63 -299q-10 -51 30 -51q18 0 41 11t48.5 34t45.5 69t26 107q5 29 1.5 62.5
t-10.5 67t-26.5 65.5t-46 57t-70 42t-97.5 21q-85 7 -157 -20t-122 -78t-81 -118.5t-41 -144.5q-1 -7 -2.5 -20t-1 -49.5t7 -71t26.5 -77t51 -74.5t86.5 -56.5t127.5 -30.5q52 -4 103.5 8.5t75.5 25.5t35 22l8 -10q-3 -3 -8.5 -8t-27 -17t-46 -21.5t-66.5 -17.5t-88 -8
q-48 0 -96.5 10.5t-102 38t-93 69.5t-63.5 111.5t-19 156.5q5 102 48 185.5t111 136.5t152 80t174 24z" />
    <glyph glyph-name="A" unicode="A" 
d="M175 226h252l-131 332zM673 13v-13h-228v13q67 0 21 113l-35 87h-259q-9 -25 -12.5 -37t-10 -37.5t-6.5 -39.5t3.5 -33.5t14 -29.5t30.5 -17t49 -6v-13h-223v13q23 1 37 10t43 62.5t70 163.5l167 455h11l246 -610q12 -29 22 -46t21.5 -24t17.5 -8.5t21 -2.5z" />
    <glyph glyph-name="B" unicode="B" horiz-adv-x="595" 
d="M242 691h-44v-328h60q27 0 47 6t40 22.5t30.5 52.5t10.5 90q0 52 -13 86t-37 48t-44.5 18.5t-49.5 4.5zM541 179q0 -37 -8.5 -65t-21 -46.5t-36.5 -31.5t-45 -20t-57.5 -11t-63.5 -4.5t-72 -0.5h-200v9q58 0 58 111v466q0 109 -58 109v9h200q41 0 67.5 -1.5t60 -6.5
t54 -16.5t39.5 -29.5t27.5 -47.5t8.5 -69.5q0 -44 -16 -77.5t-37 -50.5t-47 -28t-41.5 -13.5t-25.5 -2.5q25 0 47.5 -2.5t55 -13t55.5 -29t39.5 -54t16.5 -83.5zM429 183q0 47 -11.5 79.5t-26.5 49.5t-41.5 26t-44.5 10.5t-47 1.5h-60v-337h44q29 0 41.5 0.5t37 3.5t36 9
t28.5 18t24.5 30t13.5 45.5t6 63.5z" />
    <glyph glyph-name="C" unicode="C" horiz-adv-x="671" 
d="M603 207h13l12 -154q-54 -36 -106.5 -49t-134.5 -13q-157 0 -252 97.5t-95 263.5q0 167 95 264t252 97q85 0 141 -12.5t100 -48.5l-12 -155h-13q-10 59 -33.5 101t-55 63t-62.5 30t-65 9q-35 0 -63 -7t-58.5 -29t-51 -59t-33.5 -101.5t-13 -151.5q0 -88 13.5 -153.5
t34 -102t51 -58t58.5 -28t62 -6.5q33 0 66.5 11t66.5 33t55.5 63.5t27.5 95.5z" />
    <glyph glyph-name="D" unicode="D" horiz-adv-x="716" 
d="M536 350q0 67 -10 120.5t-25.5 88.5t-39.5 60.5t-46.5 39t-53 21t-52 9.5t-50.5 2h-44v-678h44q31 0 50 1t51.5 8t53.5 19t46.5 37t40 60t25 89t10.5 123zM656 350q0 -87 -23 -152t-59 -102t-90 -59.5t-106.5 -29.5t-118.5 -7h-215v13q32 0 50 27.5t18 78.5v467
q0 48 -18 76.5t-50 28.5v13h215q65 0 118.5 -8.5t107 -32t90 -62t59 -102.5t22.5 -149z" />
    <glyph glyph-name="E" unicode="E" horiz-adv-x="596" 
d="M521 208h13v-208h-503v13q30 0 42 25t12 79v480q0 50 -11.5 72t-42.5 22v13h490v-180h-13q-3 39 -17.5 69t-39.5 47.5t-49 28.5t-58.5 15.5t-54 5.5t-47.5 1h-54v-329h65q133 0 138 101h13v-215h-13q-2 35 -19 57.5t-44 31t-42.5 10.5t-32.5 2h-65v-336h46h43.5t47.5 3.5
t53.5 10t47.5 21t45.5 34.5t31 52.5t18.5 73.5z" />
    <glyph glyph-name="F" unicode="F" horiz-adv-x="539" 
d="M29 704h495v-180h-13q-4 35 -17.5 63t-29.5 45.5t-44 29.5t-45.5 17.5t-51 8.5t-44.5 3h-40h-53v-329h64q134 0 143 101h13v-215h-13q-9 100 -143 100h-64v-227q0 -67 18.5 -87.5t57.5 -20.5v-13h-233v13q31 0 42.5 25t11.5 79v480q0 50 -11.5 72t-42.5 22v13z" />
    <glyph glyph-name="G" unicode="G" horiz-adv-x="721" 
d="M454 280h235v-13q-17 0 -25.5 -1.5t-17.5 -10t-12 -21.5t-6.5 -41.5t-4 -64t-0.5 -95.5q-109 -42 -254 -42q-156 0 -243 102.5t-87 258.5t87 258.5t243 102.5q91 0 148.5 -13t104.5 -44l-9 -162h-21q-11 117 -67.5 161.5t-155.5 44.5q-95 0 -148 -77.5t-53 -270.5
q0 -100 15 -170t43.5 -107.5t63 -54t79.5 -16.5q89 0 127 24t38 85q0 58 -2.5 88t-13.5 45.5t-23 18t-41 2.5v13z" />
    <glyph glyph-name="H" unicode="H" horiz-adv-x="601" 
d="M543 565v-429q0 -77 7 -93q10 -21 42 -30v-13h-177v13q19 7 24 30t5 93v193h-274v-193q0 -78 4 -97t25 -26v-13h-178v13q38 10 44 28t6 95v429q0 73 -8 96.5t-42 29.5v13h178v-13q-20 -6 -24.5 -27.5t-4.5 -98.5v-219h274v219q0 77 -4.5 98.5t-24.5 27.5v13h177v-13
q-34 -6 -41.5 -28t-7.5 -98z" />
    <glyph glyph-name="I" unicode="I" horiz-adv-x="344" 
d="M52 704h243v-13q-35 0 -52.5 -17.5t-17.5 -61.5v-505q0 -94 70 -94v-13h-243v13q70 0 70 94v505q0 44 -17.5 61.5t-52.5 17.5v13z" />
    <glyph glyph-name="J" unicode="J" horiz-adv-x="395" 
d="M94 704h257v-12q-36 0 -58 -23t-22 -70v-417q0 -166 -69 -248t-198 -101l-4 12q168 61 168 324v308q0 150 -10 180q-10 31 -44 34q-8 1 -20 1v12z" />
    <glyph glyph-name="K" unicode="K" horiz-adv-x="727" 
d="M713 13v-13h-107q-41 0 -65.5 5.5t-53 30t-49 52l-67.5 93.5l-111 153l126 153q87 102 96 147q11 56 -72 57v13h275v-13q-31 0 -55 -8.5t-62.5 -38t-92.5 -91t-134 -163.5l240 -321q44 -56 132 -56zM41 704h244v-13q-40 0 -59 -14.5t-19 -64.5v-507q0 -49 16.5 -70.5
t50.5 -21.5v-13h-233v13q33 0 48.5 21t15.5 71v507q0 45 -15 62t-49 17v13z" />
    <glyph glyph-name="L" unicode="L" horiz-adv-x="610" 
d="M538 217h13v-217h-499v13q31 0 43 26t12 80v488q0 45 -15 64.5t-48 19.5v13h238v-13q-36 0 -55 -19.5t-19 -69.5v-589h36q31 0 50 0.5t51.5 4t54.5 11t48.5 22.5t43 36t29.5 54.5t17 75.5z" />
    <glyph glyph-name="M" unicode="M" horiz-adv-x="902" 
d="M798 117q0 -104 84 -104v-13h-256v13q72 0 72 104v549l-242 -675h-12l-279 612v-354q0 -49 4.5 -86.5t17.5 -74t39.5 -56t66.5 -19.5v-13h-283v13q44 0 74 20t44 56.5t19 73.5t5 86v376l-12 17.5t-11.5 14.5t-13 11t-12.5 8t-12.5 5.5t-11.5 4t-11.5 2.5t-10 1.5
t-9.5 0.5l-8 1v13h199l260 -566l199 566h177v-13q-77 0 -77 -88v-486z" />
    <glyph glyph-name="N" unicode="N" horiz-adv-x="807" 
d="M496 704h286v-12q-30 0 -53.5 -9t-38 -21t-25 -35t-15.5 -38.5t-7.5 -46.5t-2.5 -44v-43v-455h-32l-425 548v-298q0 -31 0.5 -49t4 -50.5t12 -52.5t22 -42t37.5 -32.5t55 -10.5v-13h-289v13q30 0 53.5 9t38.5 21.5t26 35t16 40t7.5 46t3 43.5t0.5 42v313l-41 53
q-12 15 -23 26.5t-19 19t-17.5 13t-14 8.5t-13.5 5t-11.5 2.5t-11 1t-9.5 0.5v12h185l432 -558v309q0 28 -0.5 43t-2.5 44t-7 46t-14.5 39.5t-23 34.5t-35 21t-48.5 9v12z" />
    <glyph glyph-name="O" unicode="O" horiz-adv-x="738" 
d="M575 347q0 192 -55.5 272.5t-153.5 80.5q-47 0 -83.5 -17t-66 -56t-45 -109.5t-15.5 -170.5t15.5 -169t45.5 -106t65.5 -52.5t83.5 -15.5q47 0 83 15.5t65.5 52.5t45 106t15.5 169zM691 347q0 -157 -83.5 -256.5t-241.5 -99.5t-241.5 99.5t-83.5 256.5q0 158 84 262
t241 104t241 -104t84 -262z" />
    <glyph glyph-name="P" unicode="P" horiz-adv-x="580" 
d="M196 314h18q46 0 71 1.5t58.5 11.5t50.5 29t29.5 55.5t12.5 90.5q0 31 -4 56.5t-10 44t-18 33t-21.5 23.5t-28 15.5t-30.5 9.5t-35.5 5t-35.5 2h-39h-18v-377zM196 301v-164q0 -44 6 -70t21 -37.5t29.5 -14t42.5 -2.5v-13h-264v13q37 0 51.5 25.5t14.5 95.5v463
q0 53 -13.5 73.5t-50.5 20.5v13h181q66 0 111.5 -4t90 -16t71 -34t42.5 -59t16 -89t-16 -89t-42.5 -58.5t-71 -33.5t-90 -16t-111.5 -4h-18z" />
    <glyph glyph-name="Q" unicode="Q" horiz-adv-x="734" 
d="M575 347q0 192 -55.5 272.5t-153.5 80.5q-47 0 -83.5 -17t-66 -56t-45 -109.5t-15.5 -170.5t15.5 -169t45.5 -106t65.5 -52.5t83.5 -15.5q47 0 83 15.5t65.5 52.5t45 106t15.5 169zM691 347q0 -157 -83.5 -256.5t-241.5 -99.5t-241.5 99.5t-83.5 256.5q0 158 84 262
t241 104t241 -104t84 -262zM408 -75l151 -53q26 -9 49 -9.5t42 6.5t28.5 12.5t23.5 15.5l9 -10l-75 -62q-38 -30 -80 -34t-89 10t-136 53l-77 34q-72 29 -149 -24l-10 11q41 34 88 51.5t85.5 18.5t71 -3t50.5 -10z" />
    <glyph glyph-name="R" unicode="R" horiz-adv-x="643" 
d="M419 513q0 37 -6 65.5t-13.5 47.5t-24 32t-29 19.5t-37 9.5t-39 3.5t-43.5 0.5h-7h-31v-355h31q28 0 41.5 0.5t37 2t34.5 6.5l28 13t25 21t17 31t12.5 44t3.5 59zM637 13v-13h-76h-49t-32.5 7t-23.5 11.5t-16.5 29t-16 42l-16.5 66.5l-16 62q-28 105 -155 105h-47v-219
q0 -50 15.5 -70.5t48.5 -20.5v-13h-224v13q34 0 48 21.5t14 82.5v498q0 45 -14 60.5t-48 15.5v13h191q65 0 109 -4t85 -15.5t64.5 -32t37 -55.5t13.5 -84q0 -96 -48.5 -136.5t-137.5 -46.5q25 -1 40 -3.5t38.5 -15.5t40 -35.5t35 -67t33.5 -107.5q19 -81 107 -88z" />
    <glyph glyph-name="S" unicode="S" horiz-adv-x="564" 
d="M479 73l-5.5 -8.5t-19.5 -20t-36 -25t-57 -19.5t-80 -9q-72 0 -131.5 14t-83.5 28l-23 14v192h12q5 -50 17 -89t36 -73.5t68 -53.5t105 -19q73 0 107.5 45.5t19.5 106t-72 100.5l-166 107q-200 133 -109 272q2 3 6 8.5t20 19t35.5 23.5t53.5 18.5t73 8.5
q64 0 121.5 -11.5t82.5 -23.5l25 -12v-168h-14q-4 41 -14.5 73.5t-33 63.5t-65 48t-102.5 17q-40 0 -72 -23.5t-45 -58t6 -77.5t72 -78l165 -109q65 -42 98 -93.5t31.5 -98t-25.5 -89.5z" />
    <glyph glyph-name="T" unicode="T" horiz-adv-x="652" 
d="M19 704h612v-176h-13q-1 38 -13.5 67.5t-33.5 46.5t-41.5 28t-44 15t-34 5t-18.5 1h-59v-594q0 -84 73 -84v-13h-244v13q35 0 53.5 18.5t18.5 65.5v594h-59q-16 0 -31 -1t-45 -10t-51 -24.5t-38.5 -49t-18.5 -78.5h-13v176z" />
    <glyph glyph-name="U" unicode="U" horiz-adv-x="716" 
d="M322 -9q-102 0 -167 65.5t-65 183.5v364q0 48 -18 67.5t-53 19.5v13h249v-13q-39 0 -59 -17t-20 -71v-372q0 -92 50 -143.5t132 -51.5q79 0 130 53t51 147v272q0 30 -1 47t-4 41.5t-10.5 38.5t-20.5 28.5t-34 21t-49 6.5v13h260v-13q-27 0 -48 -6t-34.5 -13t-22.5 -24
t-13.5 -27.5t-7 -36t-2.5 -36v-40.5v-272q0 -125 -70 -185t-173 -60z" />
    <glyph glyph-name="V" unicode="V" horiz-adv-x="743" 
d="M471 704h248v-13q-21 0 -30.5 -1t-25.5 -8t-26.5 -21t-26.5 -40.5t-33 -67.5l-40 -101l-172 -452h-14l-115.5 285.5l-93.5 243.5l-33 89q-10 25 -21.5 41t-25 22.5t-23 8t-25.5 1.5v13h269v-13q-29 0 -44.5 -12t-17.5 -30.5t-1 -29t3 -17.5l178 -477l124 329
q34 102 38 137q10 100 -92 100v13z" />
    <glyph glyph-name="W" unicode="W" horiz-adv-x="1056" 
d="M785 704h254v-13q-40 0 -63.5 -15t-52 -65.5t-69.5 -158.5l-164 -452h-14l-166 445l-151 -445h-15l-236 613q-19 49 -41.5 63.5t-54.5 14.5v13h270v-13q-30 0 -46.5 -11.5t-18 -30t-0.5 -27t4 -17.5l172 -468l110 327l-52 149q-19 49 -41.5 63.5t-54.5 14.5v13h269v-13
q-25 0 -40.5 -9t-20.5 -18.5t-4.5 -26t2 -20.5t3.5 -12l164 -471l113 321q31 101 34 132q12 104 -90 104v13z" />
    <glyph glyph-name="X" unicode="X" horiz-adv-x="731" 
d="M593 101q37 -57 61 -72t59 -17v-12h-257v12q68 9 2 113l-115 183l-55 -82l-59 -113q-33 -75 10 -93q18 -8 50 -8v-12h-258v12q26 0 40.5 4t43 23t68 67.5t94.5 130.5l57 84l-189 280q-40 59 -65.5 74.5t-57.5 15.5v13h275v-13q-22 0 -33.5 -10t-8 -37t30.5 -69l105 -165
l51 76q54 98 62 130q15 74 -76 75v13h278v-13q-24 0 -36.5 -1.5t-37 -12t-46.5 -32t-56.5 -64t-76.5 -105.5l-53 -79z" />
    <glyph glyph-name="Y" unicode="Y" horiz-adv-x="692" 
d="M421 704h257v-13q-22 0 -36 -4t-40 -22.5t-58.5 -67t-71.5 -126.5l-76 -157v-202q0 -56 19.5 -77.5t55.5 -21.5v-13h-244v13q36 0 55.5 21.5t19.5 77.5v176l-188 326q-21 36 -41 53.5t-31 20.5t-33 4v12h257v-12q-13 0 -20 -0.5t-19 -6.5t-14 -16.5t4.5 -33.5t25.5 -56
l147 -249l76 156q101 205 -45 205v13z" />
    <glyph glyph-name="Z" unicode="Z" horiz-adv-x="550" 
d="M159 13h23q151 0 221 54.5t91 165.5h17l-25 -233h-462l380 691h-49q-142 0 -209 -41.5t-88 -147.5h-18l18 202h457z" />
    <glyph glyph-name="bracketleft" unicode="[" horiz-adv-x="308" 
d="M113 735h180v-13q-26 0 -40 -1.5t-32 -9t-26 -26.5t-8 -49v-693q0 -26 8.5 -42.5t26 -23t32.5 -8.5t39 -2v-13h-180v881z" />
    <glyph glyph-name="backslash" unicode="\" horiz-adv-x="415" 
d="M324 -17l-309 750h69l309 -750h-69z" />
    <glyph glyph-name="bracketright" unicode="]" horiz-adv-x="309" 
d="M11 735h180v-881h-180v13q24 0 39 2t32.5 8.5t26 23t8.5 42.5v693q0 30 -8 49t-26 26.5t-32 9t-40 1.5v13z" />
    <glyph glyph-name="asciicircum" unicode="^" horiz-adv-x="564" 
d="M290 704l180 -328h-30l-162 206l-159 -206h-30l178 328h23z" />
    <glyph glyph-name="underscore" unicode="_" horiz-adv-x="560" 
d="M0 -76h560v-46h-560v46z" />
    <glyph glyph-name="grave" unicode="`" horiz-adv-x="326" 
d="M85 720l177 -163h-23l-235 138z" />
    <glyph glyph-name="a" unicode="a" horiz-adv-x="485" 
d="M297 247q-167 -40 -167 -132q0 -28 19 -53.5t60 -25.5q62 0 88 62v149zM432 38q23 0 30 26l12 -5q-5 -25 -30.5 -46.5t-61.5 -21.5q-3 0 -8.5 0.5t-19.5 4.5t-25 12t-20.5 25.5t-11.5 41.5q-11 -36 -50.5 -60t-91.5 -24q-5 0 -12.5 0.5t-27 6t-34.5 15.5t-27.5 31
t-12.5 50q0 25 6 44t23.5 34.5t33 25.5t52 22t62 19l79.5 21v58q0 79 -36.5 115t-95.5 9q-18 -9 -29 -18.5t-11.5 -14t1.5 -6.5q20 -3 31 -18t8.5 -34.5t-18.5 -30.5q-15 -12 -34 -9.5t-30 18.5q-19 25 -5 49q20 43 78 74q19 10 42 14.5t36 4.5h14q77 0 108 -51.5t31 -148.5
v-170v-7t2.5 -15t6.5 -19t13.5 -15t22.5 -7z" />
    <glyph glyph-name="b" unicode="b" horiz-adv-x="550" 
d="M406 213q0 225 -139 225q-54 0 -84.5 -35.5t-30.5 -94.5v-151q0 -75 34.5 -114t87.5 -39q57 0 94.5 49.5t37.5 159.5zM511 227q0 -112 -65.5 -174t-168.5 -62q-87 0 -140 50q-32 -33 -60 -40q-12 -3 -12 4v637q0 26 -10 38t-41 18v13l138 27v-347q21 38 64 59t85 21
q97 0 153.5 -69t56.5 -175z" />
    <glyph glyph-name="c" unicode="c" horiz-adv-x="481" 
d="M437 128l11 -5q-11 -49 -57 -90.5t-128 -41.5q-88 0 -153 66.5t-65 172.5q0 97 66.5 169t176.5 72q103 0 137 -61q14 -25 1 -49q-10 -16 -29 -21.5t-35 4.5q-17 10 -22 28.5t5 34.5q11 19 28 21q8 2 -7 12q-28 18 -78 18q-15 0 -31.5 -4.5t-38.5 -18.5t-39 -36.5
t-29 -63.5t-12 -94q0 -92 43 -140.5t103 -54.5q51 -4 94.5 22t58.5 60z" />
    <glyph glyph-name="d" unicode="d" horiz-adv-x="545" 
d="M395 138v175q0 69 -36 107t-85 38q-57 0 -95 -48.5t-38 -158.5q0 -231 138 -231q50 0 83 33t33 85zM532 23v-13l-109 -18q-12 -2 -19 2.5t-8 9.5l-1 6v55q-22 -36 -64 -55t-83 -19q-98 0 -154.5 69t-56.5 177q0 112 65 173t170 61q70 0 123 -37v208q0 27 -10.5 38.5
t-40.5 17.5v13l137 27v-660q0 -36 10 -45.5t41 -9.5z" />
    <glyph glyph-name="e" unicode="e" horiz-adv-x="491" 
d="M130 253h234q0 100 -35.5 152.5t-77.5 52.5q-46 0 -83.5 -57.5t-37.5 -147.5zM422 123l12 -5q-11 -45 -58 -86t-126 -41q-93 0 -153.5 68t-60.5 168q0 109 62 176.5t156 67.5q90 0 143 -58.5t53 -172.5h-320q5 -183 143 -197q45 -5 90.5 19t58.5 61z" />
    <glyph glyph-name="f" unicode="f" horiz-adv-x="301" 
d="M337 651q-7 -19 -26 -26.5t-37 0.5q-19 8 -26.5 26t0.5 37q8 21 26 24q9 3 -3 11q-13 8 -32 8q-39 0 -56.5 -56t-17.5 -213h112l-3 -13h-109v-364q0 -38 10 -53t38 -20v-12h-175v12q27 6 33 19.5t6 53.5v364h-64l-1 13h65q0 160 36.5 221t124.5 61q31 0 56.5 -12.5
t35.5 -25.5q19 -26 7 -55z" />
    <glyph glyph-name="g" unicode="g" horiz-adv-x="542" 
d="M353 318q0 76 -30.5 108t-70.5 32q-100 0 -100 -140q0 -76 30 -108.5t70 -32.5q42 0 71.5 32.5t29.5 108.5zM523 399q-15 -12 -34 -10.5t-30 16.5q-13 17 -9 33q1 3 -3 4q-17 2 -37 -17q-4 -4 -7 -9q37 -37 37 -98q0 -63 -51.5 -108.5t-136.5 -45.5q-55 0 -95 17
q-14 -2 -27.5 -14.5t-19.5 -28.5t-4 -31.5t20.5 -26t51.5 -10.5h120q91 0 126 -18q57 -29 46 -109q0 -3 -1 -8.5t-7 -22.5t-16.5 -32.5t-32.5 -36t-51 -37.5q-104 -56 -203.5 -50t-131.5 64q-24 53 -2 101t75 78q-45 22 -45 77v9t4.5 22t13 29.5t27 28t44.5 22.5
q-38 17 -58.5 53t-20.5 78q0 63 51.5 108t135.5 45q89 0 142 -47q33 49 90 56q30 2 46 -17q11 -15 9 -33.5t-16 -30.5zM94 -156q37 -44 114.5 -55t146.5 28q35 21 52.5 49t18.5 45v17q0 2 -1 5.5t-6 12.5t-14 15.5t-27 12t-42 5.5h-138q-52 0 -85 13q-75 -50 -33 -127
q9 -16 14 -21z" />
    <glyph glyph-name="h" unicode="h" horiz-adv-x="507" 
d="M488 12v-12h-167v12q27 8 33.5 23.5t6.5 57.5v213q0 114 -104 114q-34 0 -61 -24.5t-42 -55.5v-247q0 -43 7.5 -58t33.5 -22v-13h-169v13q27 8 33.5 23t6.5 57v548q0 27 -10 38t-40 16v13l138 30v-380q11 43 59 78t96 35q138 0 138 -161v-217q0 -42 7.5 -58t33.5 -23z
" />
    <glyph glyph-name="i" unicode="i" horiz-adv-x="245" 
d="M113 554q-22 0 -36.5 15t-14.5 36q0 22 14.5 36.5t36.5 14.5q21 0 36 -14.5t15 -36.5q0 -21 -15 -36t-36 -15zM207 13v-13h-168v13q27 8 33.5 23t6.5 57v277q0 27 -9.5 39.5t-40.5 20.5v12l137 29v-378q0 -43 7.5 -58t33.5 -22z" />
    <glyph glyph-name="j" unicode="j" horiz-adv-x="241" 
d="M113 554q-21 0 -36 15t-15 36q0 22 15 37t36 15t36 -15t15 -37q0 -21 -15 -36t-36 -15zM79 27v339q0 28 -10 42t-40 22v12l137 29v-421q0 -133 -43 -195t-125 -83v12q81 25 81 243z" />
    <glyph glyph-name="k" unicode="k" horiz-adv-x="511" 
d="M499 13v-13h-89q-50 0 -77 20.5t-83 97.5l-76 97l94 97l10.5 10.5t22.5 25t24.5 34.5t12.5 32t-10 25.5t-45 9.5v13h225v-13q-21 0 -39 -5t-49 -22t-75 -57.5t-102 -103.5q33 -47 76 -99t69 -80l27 -29q32 -40 84 -40zM188 13v-13h-169v13q27 8 33.5 23t6.5 56v549
q0 27 -10 39t-40 18v13l138 27v-646q0 -42 7.5 -57t33.5 -22z" />
    <glyph glyph-name="l" unicode="l" horiz-adv-x="230" 
d="M201 13v-13h-168v13q27 8 33.5 23t6.5 56v549q0 27 -10 39t-40 18v13l138 27v-646q0 -42 7 -57t33 -22z" />
    <glyph glyph-name="m" unicode="m" horiz-adv-x="747" 
d="M730 12v-12h-168v12q27 8 33.5 23.5t6.5 57.5v215q0 113 -91 113q-36 0 -64 -29t-28 -59v-24v-216q0 -43 7.5 -58.5t33.5 -22.5v-12h-168v12q27 8 33.5 23.5t6.5 57.5v215q0 113 -91 113q-34 0 -61 -28t-33 -58v-243q0 -42 7.5 -57t33.5 -22v-13h-168v13q27 8 33 22.5
t6 56.5v275q0 28 -10 41.5t-40 21.5v12l138 29v-103q17 44 56 73.5t85 29.5q109 0 128 -107q14 45 54.5 76t87.5 31q65 0 98 -36.5t33 -123.5v-218q0 -42 7.5 -58t33.5 -23z" />
    <glyph glyph-name="n" unicode="n" horiz-adv-x="506" 
d="M480 12v-12h-168v12q27 8 33.5 23.5t6.5 57.5v215q0 52 -26.5 82.5t-75.5 30.5q-36 0 -65.5 -28t-36.5 -58v-243q0 -42 7.5 -57t33.5 -22v-13h-168v13q27 8 33 22.5t6 56.5v279q0 27 -9.5 39t-40.5 20v12l138 29v-105q16 43 61 74t92 31q138 0 138 -160v-218
q0 -42 7.5 -58t33.5 -23z" />
    <glyph glyph-name="o" unicode="o" horiz-adv-x="542" 
d="M398 231q0 128 -32.5 177.5t-94.5 49.5q-63 0 -96 -49.5t-33 -177.5t33 -177.5t96 -49.5q62 0 94.5 49.5t32.5 177.5zM501 231q0 -104 -60 -172t-170 -68t-170.5 68.5t-60.5 171.5q0 104 60.5 172t170.5 68t170 -68t60 -172z" />
    <glyph glyph-name="p" unicode="p" horiz-adv-x="561" 
d="M408 213q0 228 -139 228q-49 0 -79.5 -32t-35.5 -85v-188q4 -64 38 -98t84 -34q57 0 94.5 49t37.5 160zM513 227q0 -113 -65 -174.5t-169 -61.5q-74 0 -125 38v-205q0 -42 7.5 -55.5t33.5 -20.5v-13h-168v13q27 8 33.5 21.5t6.5 54.5v553q0 26 -10 36.5t-40 16.5v12
l137 29v-78q22 37 64.5 57.5t84.5 20.5q97 0 153.5 -68.5t56.5 -175.5z" />
    <glyph glyph-name="q" unicode="q" horiz-adv-x="550" 
d="M392 127v193q-2 67 -35 102.5t-80 35.5q-58 0 -95 -48t-37 -159q0 -236 136 -236q48 0 78.5 31t32.5 81zM521 -252v-13h-168v13q27 8 33 21.5t6 53.5v227q-23 -28 -61.5 -43.5t-74.5 -15.5q-97 0 -153.5 69.5t-56.5 176.5q0 113 65 173.5t169 60.5q77 0 129 -41
q25 28 57 35q14 3 14 -5v-637q0 -42 7 -55t34 -20z" />
    <glyph glyph-name="r" unicode="r" horiz-adv-x="364" 
d="M286 468q37 4 57 -19q15 -18 13 -40.5t-20 -37.5q-17 -14 -39.5 -12.5t-38.5 19.5q-15 19 -11 38q1 5 -5 5q-21 2 -53 -28q-24 -22 -37 -51v-249q0 -43 7.5 -58t33.5 -22v-13h-169v13q27 8 33.5 23t6.5 57v277q0 27 -10 39.5t-40 20.5v12l138 29v-105q26 47 63 72.5
t71 29.5z" />
    <glyph glyph-name="s" unicode="s" horiz-adv-x="417" 
d="M350 40q-4 -5 -12 -13.5t-41 -22t-74 -13.5q-54 0 -97.5 10t-60.5 20l-17 10v136h13q17 -163 162 -163q50 0 68 28.5t2.5 65.5t-53.5 62l-101 61q-71 48 -90 95t12 98q1 2 3.5 6t13.5 14t24.5 17.5t37.5 13.5t53 6q51 0 92 -8t56 -16l15 -8v-122h-12q-17 141 -151 141
q-46 0 -65.5 -25.5t-5.5 -61t56 -62.5l101 -63q68 -42 87.5 -98t-16.5 -108z" />
    <glyph glyph-name="t" unicode="t" horiz-adv-x="316" 
d="M294 82l10 -5q-11 -35 -43.5 -60.5t-73.5 -25.5q-59 0 -88 33.5t-29 119.5v305h-51l-2 13h53v142l87 14v-156h119l-3 -13h-116v-302q0 -107 76 -107q21 0 38 12.5t23 29.5z" />
    <glyph glyph-name="u" unicode="u" horiz-adv-x="522" 
d="M504 24v-13l-114 -19q-11 -2 -17 1.5t-7 8.5v5v85q-14 -41 -57.5 -71t-92.5 -30q-143 0 -143 151v225q0 50 -7 60t-49 13v12l142 19v-326q0 -54 28 -79.5t75 -25.5q36 0 62.5 21.5t41.5 55.5v252q0 48 -6 58.5t-41 12.5v12l134 19v-388q0 -35 9.5 -45t41.5 -14z" />
    <glyph glyph-name="v" unicode="v" horiz-adv-x="514" 
d="M321 462h193v-13q-18 0 -28 -2.5t-26 -13.5t-32 -38.5t-35 -73.5l-124 -330h-10l-190 408q-11 23 -26.5 35t-22.5 13t-21 2v13h208v-13q-30 0 -37.5 -17.5t-0.5 -34.5l7 -17l124 -271l77 207q2 5 5 14t6 32t0 40.5t-19.5 32t-47.5 14.5v13z" />
    <glyph glyph-name="w" unicode="w" horiz-adv-x="749" 
d="M564 462h177v-13q-12 0 -21.5 -3t-24.5 -13.5t-30 -37.5t-30 -69l-116 -335h-10l-133 309l-109 -309h-11l-175 406q-22 49 -65 52v13h192v-13q-25 0 -32 -15t-2 -30l6 -15l117 -275l71 203l-34 80q-23 49 -61 52v13h192v-13q-28 0 -36 -15.5t-2 -31.5l6 -15l116 -273
l73 217q2 5 4 13t4 28t-2 35.5t-20 28.5t-44 13v13z" />
    <glyph glyph-name="x" unicode="x" horiz-adv-x="518" 
d="M419 64q33 -48 92 -51v-13h-202v13q18 0 21.5 11t-2 24t-12.5 24l-7 11l-74 109l-36 -52q-14 -21 -21 -33t-15.5 -29t-8.5 -27t4 -19.5t19 -14t39 -4.5v-13h-203v13q14 0 20.5 0.5t25 7t34.5 19.5t41.5 41t54.5 69l38 53l-135 198q-26 32 -41.5 40t-38.5 9v12h203v-12
q-14 0 -22 -5.5t-6 -22t20 -42.5l70 -103l32 45q42 66 42 90q1 38 -63 38v12h213v-12q-21 -1 -30.5 -2.5t-34 -12.5t-53.5 -42t-65 -81l-34 -47z" />
    <glyph glyph-name="y" unicode="y" horiz-adv-x="532" 
d="M320 462h193v-12q-21 0 -36 -7.5t-39.5 -44.5t-52.5 -108l-155 -423q-20 -58 -61 -93q-11 -9 -28 -11t-32 4q-20 9 -27.5 29.5t0.5 40.5q10 20 30 28t40 -1q20 -8 27 -32q4 -14 20 3q11 12 19 34l45 127l-187 403q-21 48 -70 51v12h207v-12q-29 0 -36.5 -18t-0.5 -36
l7 -19l124 -266l66 182q3 6 6.5 17t8 38t2 48t-20 37.5t-49.5 16.5v12z" />
    <glyph glyph-name="z" unicode="z" horiz-adv-x="432" 
d="M389 462l-248 -450q109 0 161 35t63 105h13l-9 -152h-340l259 449q-107 0 -163.5 -26t-67.5 -93h-13l5 132h340z" />
    <glyph glyph-name="braceleft" unicode="{" horiz-adv-x="313" 
d="M268 -154l-1 -10q-139 19 -139 167v117q0 24 -1 43.5t-4.5 34l-6 25.5t-8.5 18.5t-9.5 12.5t-12 8.5t-12 4.5t-13 3.5t-12.5 3.5v11q1 0 14 4t15 5t12.5 7t13 12.5t9.5 19t8.5 28t4 38.5t2.5 52v117q0 148 139 167l1 -10q-70 -26 -70 -157v-144q0 -74 -35 -109t-77 -35
q44 0 78 -30t34 -103v-144q0 -133 70 -157z" />
    <glyph glyph-name="bar" unicode="|" horiz-adv-x="202" 
d="M73 -164v899h58v-899h-58z" />
    <glyph glyph-name="braceright" unicode="}" horiz-adv-x="319" 
d="M49 -164l-1 10q70 24 70 157v144q0 73 34 103t78 30q-42 0 -77 35t-35 109v144q0 131 -70 157l1 10q139 -19 139 -167v-117q0 -29 2.5 -52t4 -38.5t8.5 -28t9.5 -19t13 -12.5t12.5 -7t15 -5t14 -4v-11q-3 -1 -12.5 -3.5t-13 -3.5t-12 -4.5t-12 -8.5t-9.5 -12.5
t-8.5 -18.5l-6 -25.5t-4.5 -34t-1 -43.5v-117q0 -148 -139 -167z" />
    <glyph glyph-name="asciitilde" unicode="~" horiz-adv-x="578" 
d="M337 212l-115 43q-20 5 -47.5 7t-59 -11.5t-43.5 -40.5l-10 4q17 43 42.5 69.5t49.5 34.5t46 9.5t35 -1.5l13 -4l115 -43q19 -5 47 -6t59 13t42 39l10 -4q-17 -43 -42.5 -70t-49 -35t-45 -9.5t-34.5 1.5z" />
    <glyph glyph-name="uni007F" horiz-adv-x="0" 
 />
    <glyph glyph-name="uni00A0" unicode="&#xa0;" horiz-adv-x="250" 
 />
    <glyph glyph-name="exclamdown" unicode="&#xa1;" horiz-adv-x="286" 
d="M122 373h47l22 -548h-92zM146 569q25 0 42 -17t17 -41q0 -25 -17 -41.5t-42 -16.5q-24 0 -41 16.5t-17 41.5q0 24 17 41t41 17z" />
    <glyph glyph-name="cent" unicode="&#xa2;" horiz-adv-x="504" 
d="M168 242q0 -87 37.5 -134.5t93.5 -59.5v409q-21 -3 -41 -14.5t-42 -34.5t-35 -66t-13 -100zM467 128l11 -5q-11 -45 -50.5 -85.5t-109.5 -46.5v-109h-19v109q-99 2 -161.5 67.5t-62.5 172.5q0 93 61 163.5t163 76.5v122h19v-122q103 0 137 -60q15 -26 1 -49
q-10 -16 -29 -21.5t-35 3.5q-17 10 -22 29t5 35t28 21q8 0 -5 9q-28 20 -80 20v-412q51 -3 93 23t56 59z" />
    <glyph glyph-name="sterling" unicode="&#xa3;" horiz-adv-x="645" 
d="M288 86q-58 40 -95 55q-50 20 -84 9.5t-50.5 -35t-10.5 -48.5q17 -63 91 -63q105 0 149 82zM248 170q39 -15 52 -25q5 57 -45 133l-54 84h-96v14h90q-35 71 -44 132.5t5.5 103.5t43 73t66 44.5t77.5 13.5t75 -15q65 -29 83 -87q10 -31 -17 -57q-17 -15 -40 -14t-39 18
q-16 18 -14.5 41t18.5 39q14 14 39 12q11 -1 0 13q-12 16 -35 23q-32 10 -61.5 11t-53.5 -8.5t-41 -28t-23.5 -49t-2.5 -68.5t23.5 -88.5t53.5 -108.5h178v-14h-169l31 -45q59 -93 10 -195q15 -10 38 -21t39 -17l16 -6q45 -17 87.5 -2t46.5 54l14 -2q0 -37 -13.5 -65.5
t-33.5 -42.5t-35 -20.5t-26 -7.5q-35 -3 -74 16t-98 59q-55 -76 -179 -76q-7 0 -18 2t-29.5 8.5t-34 23t-23.5 40.5q-6 12 -2 28.5t10.5 34.5t24.5 32t40.5 22.5t59.5 6t80 -18.5z" />
    <glyph glyph-name="currency" unicode="&#xa4;" horiz-adv-x="573" 
d="M156 465q-50 -50 -50 -120t50 -120q52 -50 120 -50q70 0 120 50t50 120q0 68 -50 120q-48 50 -120 50q-70 0 -120 -50zM458 205l76 -76l-41 -42l-76 76q-60 -48 -141 -48q-79 0 -141 48l-75 -76l-42 42l76 76q-48 60 -48 140q0 81 48 141l-76 76l42 41l75 -75
q62 48 141 48q81 0 141 -48l76 75l41 -41l-76 -76q48 -60 48 -141q0 -80 -48 -140z" />
    <glyph glyph-name="yen" unicode="&#xa5;" horiz-adv-x="620" 
d="M387 691v13h257v-13q-22 0 -36 -4t-40 -22.5t-58.5 -66.5t-71.5 -126l-74 -153h170v-15h-172v-68h172v-15h-172v-109q0 -56 19.5 -77.5t55.5 -21.5v-13h-244v13q36 0 55.5 21.5t19.5 77.5v109h-192v15h192v51l-10 17h-182v15h174l-170 294q-21 36 -41 54t-31 21t-33 4v12
h257v-12q-13 0 -20.5 -0.5t-19 -6.5t-13.5 -17t4.5 -34t25.5 -56l146 -247l76 154q102 206 -44 206z" />
    <glyph glyph-name="brokenbar" unicode="&#xa6;" horiz-adv-x="200" 
d="M130 735v-376h-59v376h59zM130 185v-377h-59v377h59z" />
    <glyph glyph-name="section" unicode="&#xa7;" horiz-adv-x="532" 
d="M188 404q-43 -28 -63 -57.5t-20 -54t14 -50t34 -44t46 -36.5l68 -45t51 -34q20 -13 35 -25q170 117 -16 244l-123 83q-23 16 -26 19zM364 48q82 -74 71 -164q-6 -49 -31 -81t-56 -42t-64 -15t-54 0q-37 3 -68.5 23.5t-42.5 42.5q-13 28 4 52q11 17 31.5 20.5t37.5 -7.5
q17 -12 21 -32.5t-8 -37.5q-13 -15 -34 -19q-10 -3 13 -15q20 -11 44 -14q53 -6 93.5 18t46.5 74q5 43 -12 74t-70 69l-127 86q-45 31 -71.5 69.5t-31.5 82.5t25 92t95 90q-42 37 -59.5 75.5t-11.5 90.5q17 151 200 139q37 -3 68.5 -23.5t42.5 -43.5q13 -29 -2 -52
q-12 -17 -32.5 -20.5t-38.5 8.5q-17 12 -20.5 32t8.5 37q13 18 29 18q9 1 -6 13q-17 14 -43 17q-60 5 -100.5 -18t-46.5 -74q-5 -41 13.5 -73t72.5 -71l127 -85q45 -30 72 -69.5t32.5 -84t-23.5 -93t-94 -89.5z" />
    <glyph glyph-name="dieresis" unicode="&#xa8;" horiz-adv-x="234" 
d="M151 646q0 20 13.5 33.5t32.5 13.5t33 -14t14 -33t-14 -32.5t-33 -13.5t-32.5 13t-13.5 33zM-9 646q0 19 13.5 33t32.5 14t33 -13.5t14 -33.5q0 -19 -13.5 -32.5t-33.5 -13.5q-19 0 -32.5 13.5t-13.5 32.5z" />
    <glyph glyph-name="copyright" unicode="&#xa9;" horiz-adv-x="797" 
d="M519 275h11l5 -85q-31 -21 -59.5 -28t-74.5 -7q-88 0 -142 55t-54 148q0 94 53.5 148.5t142.5 54.5q93 0 134 -34l-5 -86h-11q-9 107 -118 107q-18 0 -33 -3t-32.5 -15t-29.5 -31.5t-20 -55.5t-8 -85q0 -190 123 -190q109 0 118 107zM398 51q130 0 223 93t93 224
t-93 224.5t-223 93.5t-223.5 -93.5t-93.5 -224.5t93 -224t224 -93zM398 735q152 0 260 -107.5t108 -259.5t-108 -259.5t-260 -107.5q-153 0 -260.5 107.5t-107.5 259.5t107.5 259.5t260.5 107.5z" />
    <glyph glyph-name="ordfeminine" unicode="&#xaa;" horiz-adv-x="297" 
d="M154 582q-88 -20 -88 -65q0 -14 10 -27t32 -13q19 0 32.5 16t13.5 30v59zM238 491l11 -4q-2 -13 -16 -23.5t-34 -10.5q-5 0 -12.5 1t-20 11t-12.5 27q-4 -18 -25 -28.5t-49 -10.5h-6.5t-14.5 3t-18 8t-14.5 16t-6.5 26q0 37 28.5 53t105.5 36v29q0 41 -19.5 58t-50.5 3
q-20 -11 -20 -17q10 0 17 -9q12 -19 -6 -34q-7 -6 -17 -4.5t-16 9.5q-9 10 -3 25q11 24 40 39q9 4 21.5 6.5t20.5 3.5h8q40 0 56 -27t16 -78v-89q0 -4 0.5 -9.5t6.5 -14t16 -8.5q11 -1 14 13z" />
    <glyph glyph-name="guillemotleft" unicode="&#xab;" horiz-adv-x="610" 
d="M522 505v-26l-148 -213l148 -207v-26l-231 233zM318 505v-26l-149 -213l149 -207v-26l-231 233z" />
    <glyph glyph-name="logicalnot" unicode="&#xac;" horiz-adv-x="644" 
d="M41 393h555v-309h-62v248h-493v61z" />
    <glyph glyph-name="uni00AD" unicode="&#xad;" horiz-adv-x="444" 
d="M379 220h-315v68h315v-68z" />
    <glyph glyph-name="registered" unicode="&#xae;" horiz-adv-x="800" 
d="M361 362q21 0 30 0.5t25 3t23 8t16 16t12 27.5t3 40q0 26 -6.5 44t-14.5 27.5t-25 14t-28.5 5t-34.5 0.5h-17v-186h17zM530 230q8 -42 59 -42v-13h-44h-20.5t-15.5 2t-11.5 3t-8 6.5t-7 9.5t-5.5 15.5t-6 20t-7 28l-9 35.5q-6 24 -27.5 37.5t-39.5 15.5l-18 1h-26v-111
q0 -50 35 -50v-13h-122v13q19 0 26.5 12t7.5 45v265q0 25 -7 31.5t-27 6.5v13h104q90 0 129.5 -20t39.5 -84q0 -95 -97 -102q13 0 25 -3.5t26.5 -15.5t26.5 -39t19 -67zM399 735q152 0 260 -107.5t108 -259.5t-108 -259.5t-260 -107.5q-153 0 -260.5 107.5t-107.5 259.5
t107.5 259.5t260.5 107.5zM399 52q130 0 223 93t93 223q0 131 -93 224t-223 93q-131 0 -224 -93t-93 -224t93 -223.5t224 -92.5z" />
    <glyph glyph-name="macron" unicode="&#xaf;" horiz-adv-x="360" 
d="M377 597h-393v51h393v-51z" />
    <glyph glyph-name="degree" unicode="&#xb0;" horiz-adv-x="381" 
d="M89 607q0 -40 29 -68.5t70 -28.5q40 0 68.5 28.5t28.5 68.5t-28.5 68.5t-68.5 28.5q-41 0 -70 -28.5t-29 -68.5zM57 607q0 54 38.5 92t91.5 38t91.5 -38t38.5 -92q0 -53 -38.5 -91t-91.5 -38t-91.5 38t-38.5 91z" />
    <glyph glyph-name="plusminus" unicode="&#xb1;" horiz-adv-x="608" 
d="M331 368h229v-62h-229v-166h-62v166h-228v62h228v167h62v-167zM41 0v61h519v-61h-519z" />
    <glyph glyph-name="twosuperior" unicode="&#xb2;" horiz-adv-x="259" 
d="M201 445h13l-18 -66h-166l101 152q50 75 14 117q-23 27 -60 17q-35 -9 -42 -47l-13 1q1 25 10.5 42.5t22 25.5t24.5 12.5t21 4.5h8q34 0 56.5 -22t22.5 -53q0 -36 -52 -104l-71 -105h89q25 0 40 25z" />
    <glyph glyph-name="threesuperior" unicode="&#xb3;" horiz-adv-x="263" 
d="M223 474q1 -53 -32.5 -77t-73.5 -24q-49 0 -76 27q-13 11 -5 26q4 10 13 14.5t19 0.5t14.5 -13.5t0.5 -19.5q-5 -10 -12 -12q-4 -1 4 -5q14 -6 42 -6q33 0 50 20.5t13 57.5q-7 67 -86 72v13q33 5 50.5 26t15 45.5t-22.5 41.5q-22 19 -52 8.5t-36 -40.5l-14 1
q1 21 10.5 36t20 22t24.5 11t20 4.5t11 0.5q36 0 59.5 -27.5t17 -64t-46.5 -59.5q34 -8 52.5 -30t19.5 -49z" />
    <glyph glyph-name="acute" unicode="&#xb4;" horiz-adv-x="349" 
d="M87 557l177 163l81 -25l-235 -138h-23z" />
    <glyph glyph-name="mu" unicode="&#xb5;" horiz-adv-x="518" 
d="M498 24v-13l-114 -19q-11 -2 -17 1.5t-7 8.5v5v85q-15 -56 -79.5 -87t-127.5 1v-175q0 -36 10 -48t42 -15v-13l-113 -19q-12 -2 -18 1.5t-6 8.5l-1 5v616q0 50 -7 60t-49 13v12l142 19v-333q2 -50 30 -74t73 -24q36 0 62.5 21.5t41.5 55.5v252q0 48 -6 58.5t-41 12.5v12
l134 19v-388q0 -35 9.5 -45t41.5 -14z" />
    <glyph glyph-name="paragraph" unicode="&#xb6;" horiz-adv-x="624" 
d="M465 574v-700q0 -59 19.5 -92.5t55.5 -33.5v-13h-134v969h141v-13q-37 0 -59.5 -32t-22.5 -85zM287 704h58v-969h-173v13q46 0 80 23.5t34 83.5v445q-56 0 -97.5 8.5t-78 29t-55.5 61.5t-19 101q0 202 250 204h1z" />
    <glyph glyph-name="periodcentered" unicode="&#xb7;" horiz-adv-x="252" 
d="M125 253q-19 0 -33 13.5t-14 32.5t14 33t33 14t33 -14t14 -33t-14 -32.5t-33 -13.5z" />
    <glyph glyph-name="cedilla" unicode="&#xb8;" horiz-adv-x="266" 
d="M111 -4h13l-22 -63q65 15 99 -12t28 -70q-4 -32 -23.5 -51t-38.5 -24t-40 -5q-44 0 -66 22q-10 11 -5 25q9 22 31 13q10 -3 14.5 -11.5t0.5 -18.5q-2 -7 -10 -11q-1 -1 1.5 -3t11.5 -4.5t22 -2.5q26 0 43 16t16 44q0 29 -25 55t-80 14z" />
    <glyph glyph-name="onesuperior" unicode="&#xb9;" horiz-adv-x="209" 
d="M131 430q0 -16 6 -25t12.5 -10.5t17.5 -1.5v-13h-117v13q12 0 19 2t13.5 10.5t6.5 24.5v199q0 36 -39 7l-8 12l73 57h16v-275z" />
    <glyph glyph-name="ordmasculine" unicode="&#xba;" horiz-adv-x="326" 
d="M162 386q35 0 55.5 31.5t20.5 119.5q0 157 -76 157q-35 0 -56 -33.5t-21 -123.5q0 -88 21 -119.5t56 -31.5zM162 707q127 0 127 -170q0 -164 -127 -164q-128 0 -128 164q0 170 128 170z" />
    <glyph glyph-name="guillemotright" unicode="&#xbb;" horiz-adv-x="609" 
d="M83 479v26l231 -239l-231 -233v26l148 207zM287 479v26l231 -239l-231 -233v26l149 207z" />
    <glyph glyph-name="onequarter" unicode="&#xbc;" horiz-adv-x="624" 
d="M14 36l556 673h50l-557 -673h-49zM138 664q0 38 -43 5l-8 12l78 65h17v-318q0 -19 7 -28t13.5 -10.5t18.5 -1.5v-13h-125v13q13 0 20.5 2t14.5 11t7 27v236zM452 133v162l-94 -140q-8 -17 -6 -19.5t14 -2.5h86zM504 365v-232h50v-27h-50v-38q0 -25 6 -38t12.5 -15
t20.5 -2v-13h-129v13q13 0 20 2.5t12.5 14.5t5.5 36v40h-139v8l170 252z" />
    <glyph glyph-name="onehalf" unicode="&#xbd;" horiz-adv-x="642" 
d="M589 76h11l-21 -76h-189l115 174q55 83 18 130q-24 32 -66 24q-42 -7 -53 -51q-1 -2 -1 -5l-12 3q1 28 11.5 48.5t24.5 29.5t28 14t23 5l10 1q39 0 64.5 -25.5t25.5 -61.5q0 -24 -13.5 -49.5t-47.5 -69.5l-81 -120h103q34 0 50 29zM138 664q0 39 -43 6l-8 11l78 65h17
v-318q0 -19 7 -28t13.5 -10.5t18.5 -1.5v-13h-125v13q13 0 20.5 2t14.5 11t7 27v236zM14 36l556 673h50l-557 -673h-49z" />
    <glyph glyph-name="threequarters" unicode="&#xbe;" horiz-adv-x="641" 
d="M452 133v162l-94 -140q-8 -17 -6 -19.5t14 -2.5h86zM554 106h-50v-38q0 -25 6 -38t12.5 -15t20.5 -2v-13h-129v13q13 0 20 2.5t12.5 14.5t5.5 36v40h-139v8l170 252l21 -1v-232h50v-27zM264 487q0 -62 -37.5 -88t-82.5 -26q-57 0 -86 29q-12 11 -6 30q4 11 15 16t22 1
q26 -12 17 -38q-6 -11 -11 -12q-2 -1 1.5 -4t16 -6t31.5 -3q80 0 71 89q-3 31 -25 56t-73 28v11q38 6 58 30t17 51.5t-25 45.5q-25 21 -59 9t-41 -46l-14 3q1 23 11.5 40t22.5 25t27.5 12.5t22 5t11.5 0.5q41 0 67.5 -31t19.5 -72.5t-53 -66.5q38 -8 59 -33.5t23 -55.5z
M14 36l556 673h50l-557 -673h-49z" />
    <glyph glyph-name="questiondown" unicode="&#xbf;" horiz-adv-x="588" 
d="M260 409q0 27 18.5 45.5t45.5 18.5q26 0 44.5 -18.5t18.5 -45.5q0 -26 -18.5 -44.5t-44.5 -18.5q-27 0 -45.5 18.5t-18.5 44.5zM253 136q38 15 55.5 49t13.5 80l20 3q16 -101 -52 -157q-21 -19 -33.5 -32t-27 -37t-20 -56t-1.5 -74q5 -55 28 -90.5t55 -48.5t67 -12.5
t68 13.5q36 14 33 35q-2 9 -9 10q-19 1 -32 21q-13 18 -9 39.5t21 34.5q18 12 39.5 7.5t34.5 -22.5q14 -19 6 -54q-5 -19 -26 -43.5t-53 -38.5q-83 -33 -155 -26.5t-122 53.5t-53 118q-2 51 12.5 92.5t41 68t49.5 41.5t49 26z" />
    <glyph glyph-name="Agrave" unicode="&#xc0;" 
d="M427 226h-252l121 332zM673 13q-15 1 -21 2.5t-17.5 8.5t-21.5 24t-22 46l-246 610h-11l-167 -455q-41 -110 -70 -163.5t-43 -62.5t-37 -10v-13h223v13q-29 -1 -49 6t-30.5 17t-14 29.5t-3.5 33.5t6.5 39.5t10 37.5t12.5 37h259l35 -87q46 -113 -21 -113v-13h228v13z
M285 897l177 -163h-23l-235 138z" />
    <glyph glyph-name="Aacute" unicode="&#xc1;" 
d="M175 226h252l-131 332zM673 13v-13h-228v13q67 0 21 113l-35 87h-259q-9 -25 -12.5 -37t-10 -37.5t-6.5 -39.5t3.5 -33.5t14 -29.5t30.5 -17t49 -6v-13h-223v13q23 1 37 10t43 62.5t70 163.5l167 455h11l246 -610q12 -29 22 -46t21.5 -24t17.5 -8.5t21 -2.5zM220 734
l177 163l81 -25l-235 -138h-23z" />
    <glyph glyph-name="Acircumflex" unicode="&#xc2;" 
d="M427 226h-252l121 332zM673 13q-15 1 -21 2.5t-17.5 8.5t-21.5 24t-22 46l-246 610h-11l-167 -455q-41 -110 -70 -163.5t-43 -62.5t-37 -10v-13h223v13q-29 -1 -49 6t-30.5 17t-14 29.5t-3.5 33.5t6.5 39.5t10 37.5t12.5 37h259l35 -87q46 -113 -21 -113v-13h228v13z
M460 735l-119 102l-119 -102h-23l142 188l143 -188h-24z" />
    <glyph glyph-name="Atilde" unicode="&#xc3;" 
d="M385 767l-114 43q-20 5 -47.5 6.5t-58.5 -12t-43 -40.5l-9 4q17 43 42 70t48.5 35t45 10t34.5 -1l13 -4l115 -44q20 -5 48 -5.5t58.5 13.5t42.5 39l9 -4q-17 -43 -42.5 -70.5t-49 -35.5t-45 -9.5t-34.5 2.5zM175 226h252l-131 332zM673 13v-13h-228v13q67 0 21 113
l-35 87h-259q-9 -25 -12.5 -37t-10 -37.5t-6.5 -39.5t3.5 -33.5t14 -29.5t30.5 -17t49 -6v-13h-223v13q23 1 37 10t43 62.5t70 163.5l167 455h11l246 -610q12 -29 22 -46t21.5 -24t17.5 -8.5t21 -2.5z" />
    <glyph glyph-name="Adieresis" unicode="&#xc4;" 
d="M374 827q0 19 13.5 33t32.5 14q20 0 33.5 -14t13.5 -33t-14 -32.5t-33 -13.5t-32.5 13.5t-13.5 32.5zM215 827q0 20 13.5 33.5t32.5 13.5t32.5 -14t13.5 -33t-13.5 -32.5t-32.5 -13.5t-32.5 13.5t-13.5 32.5zM175 226h252l-131 332zM673 13v-13h-228v13q67 0 21 113
l-35 87h-259q-9 -25 -12.5 -37t-10 -37.5t-6.5 -39.5t3.5 -33.5t14 -29.5t30.5 -17t49 -6v-13h-223v13q23 1 37 10t43 62.5t70 163.5l167 455h11l246 -610q12 -29 22 -46t21.5 -24t17.5 -8.5t21 -2.5z" />
    <glyph glyph-name="Aring" unicode="&#xc5;" 
d="M276 879q0 -26 19 -45t46 -19t45.5 19t18.5 45q0 27 -18.5 46t-45.5 19t-46 -19t-19 -46zM242 879q0 41 29 70.5t70 29.5t70 -29.5t29 -70.5q0 -40 -29 -69t-70 -29t-70 28.5t-29 69.5zM175 226h252l-131 332zM673 13v-13h-228v13q67 0 21 113l-35 87h-259
q-9 -25 -12.5 -37t-10 -37.5t-6.5 -39.5t3.5 -33.5t14 -29.5t30.5 -17t49 -6v-13h-223v13q23 1 37 10t43 62.5t70 163.5l167 455h11l246 -610q12 -29 22 -46t21.5 -24t17.5 -8.5t21 -2.5z" />
    <glyph glyph-name="AE" unicode="&#xc6;" horiz-adv-x="939" 
d="M231 249h219v349q0 33 -2 40zM867 207h13v-207h-492v13q33 0 47.5 21t14.5 83v119h-225q-31 -57 -47 -98t-18 -65t8.5 -37.5t27 -18t42.5 -4.5v-13h-229v13q23 1 44 14t64.5 70.5t104.5 165.5l221 396q-5 14 -15.5 21.5t-20.5 9t-27 1.5v13h486v-180h-13q-3 40 -16.5 70
t-37.5 47.5t-46.5 28.5t-55.5 15t-51.5 5t-47.5 1h-44v-330h55q123 0 128 101h13v-214h-13q-5 100 -128 100h-55v-335h36q30 0 43 0.5t46 3.5t51.5 9.5t46 21t43 34.5t29.5 52t18 73z" />
    <glyph glyph-name="Ccedilla" unicode="&#xc7;" horiz-adv-x="671" 
d="M603 207h13l12 -154q-54 -36 -106.5 -49t-134.5 -13h-16l-19 -54q65 15 99 -12t28 -70q-4 -32 -23.5 -51t-38.5 -24t-40 -5q-44 0 -66 22q-10 11 -5 25q9 22 31 13q10 -3 14.5 -11.5t0.5 -18.5q-2 -7 -10 -11q-1 -1 1.5 -3t11.5 -4.5t22 -2.5q26 0 43 16t16 44
q0 29 -25 55t-80 14l27 79q-145 9 -231.5 105.5t-86.5 254.5q0 167 95 264t252 97q85 0 141 -12.5t100 -48.5l-12 -155h-13q-10 59 -33.5 101t-55 63t-62.5 30t-65 9q-35 0 -63 -7t-58.5 -29t-51 -59t-33.5 -101.5t-13 -151.5q0 -88 13.5 -153.5t34 -102t51 -58t58.5 -28
t62 -6.5q33 0 66.5 11t66.5 33t55.5 63.5t27.5 95.5z" />
    <glyph glyph-name="Egrave" unicode="&#xc8;" horiz-adv-x="596" 
d="M534 208h-13q-4 -41 -18.5 -73.5t-31 -52.5t-45.5 -34.5t-47.5 -21t-53.5 -10t-47.5 -3.5h-43.5h-46v336h65q17 0 32.5 -2t42.5 -10.5t44 -31t19 -57.5h13v215h-13q-5 -101 -138 -101h-65v329h54q28 0 47.5 -1t54 -5.5t58.5 -15.5t49 -28.5t39.5 -47.5t17.5 -69h13v180
h-490v-13q31 0 42.5 -22t11.5 -72v-480q0 -54 -12 -79t-42 -25v-13h503v208zM239 897l177 -163h-23l-235 138z" />
    <glyph glyph-name="Eacute" unicode="&#xc9;" horiz-adv-x="596" 
d="M521 208h13v-208h-503v13q30 0 42 25t12 79v480q0 50 -11.5 72t-42.5 22v13h490v-180h-13q-3 39 -17.5 69t-39.5 47.5t-49 28.5t-58.5 15.5t-54 5.5t-47.5 1h-54v-329h65q133 0 138 101h13v-215h-13q-2 35 -19 57.5t-44 31t-42.5 10.5t-32.5 2h-65v-336h46h43.5t47.5 3.5
t53.5 10t47.5 21t45.5 34.5t31 52.5t18.5 73.5zM153 734l177 163l81 -25l-235 -138h-23z" />
    <glyph glyph-name="Ecircumflex" unicode="&#xca;" horiz-adv-x="596" 
d="M534 208h-13q-4 -41 -18.5 -73.5t-31 -52.5t-45.5 -34.5t-47.5 -21t-53.5 -10t-47.5 -3.5h-43.5h-46v336h65q17 0 32.5 -2t42.5 -10.5t44 -31t19 -57.5h13v215h-13q-5 -101 -138 -101h-65v329h54q28 0 47.5 -1t54 -5.5t58.5 -15.5t49 -28.5t39.5 -47.5t17.5 -69h13v180
h-490v-13q31 0 42.5 -22t11.5 -72v-480q0 -54 -12 -79t-42 -25v-13h503v208zM403 735l-119 102l-119 -102h-23l142 188l143 -188h-24z" />
    <glyph glyph-name="Edieresis" unicode="&#xcb;" horiz-adv-x="596" 
d="M317 827q0 19 13.5 33t32.5 14t33 -14t14 -33t-14 -32.5t-33 -13.5t-32.5 13.5t-13.5 32.5zM158 827q0 20 13.5 33.5t32.5 13.5t32.5 -14t13.5 -33t-13.5 -32.5t-32.5 -13.5t-32.5 13.5t-13.5 32.5zM521 208h13v-208h-503v13q30 0 42 25t12 79v480q0 50 -11.5 72
t-42.5 22v13h490v-180h-13q-3 39 -17.5 69t-39.5 47.5t-49 28.5t-58.5 15.5t-54 5.5t-47.5 1h-54v-329h65q133 0 138 101h13v-215h-13q-2 35 -19 57.5t-44 31t-42.5 10.5t-32.5 2h-65v-336h46h43.5t47.5 3.5t53.5 10t47.5 21t45.5 34.5t31 52.5t18.5 73.5z" />
    <glyph glyph-name="Igrave" unicode="&#xcc;" horiz-adv-x="344" 
d="M295 704h-243v-13q35 0 52.5 -17.5t17.5 -61.5v-505q0 -94 -70 -94v-13h243v13q-70 0 -70 94v505q0 44 17.5 61.5t52.5 17.5v13zM119 897l177 -163h-23l-235 138z" />
    <glyph glyph-name="Iacute" unicode="&#xcd;" horiz-adv-x="344" 
d="M52 704h243v-13q-35 0 -52.5 -17.5t-17.5 -61.5v-505q0 -94 70 -94v-13h-243v13q70 0 70 94v505q0 44 -17.5 61.5t-52.5 17.5v13zM42 734l177 163l81 -25l-235 -138h-23z" />
    <glyph glyph-name="Icircumflex" unicode="&#xce;" horiz-adv-x="344" 
d="M295 704h-243v-13q35 0 52.5 -17.5t17.5 -61.5v-505q0 -94 -70 -94v-13h243v13q-70 0 -70 94v505q0 44 17.5 61.5t52.5 17.5v13zM293 735l-119 102l-119 -102h-23l142 188l143 -188h-24z" />
    <glyph glyph-name="Idieresis" unicode="&#xcf;" horiz-adv-x="344" 
d="M254 781q-19 0 -32.5 13.5t-13.5 32.5q0 20 13.5 33.5t32.5 13.5t33 -14t14 -33t-14 -32.5t-33 -13.5zM141 827q0 -19 -14 -32.5t-33 -13.5t-32.5 13.5t-13.5 32.5t13.5 33t32.5 14q20 0 33.5 -14t13.5 -33zM53 691v13h242v-13q-35 0 -52.5 -17.5t-17.5 -61.5v-505
q0 -94 70 -94v-13h-242v13q70 0 70 94v505q0 44 -17.5 61.5t-52.5 17.5z" />
    <glyph glyph-name="Eth" unicode="&#xd0;" horiz-adv-x="711" 
d="M536 350q0 67 -10 120.5t-25.5 88.5t-39.5 60.5t-46.5 39t-53 21t-52 9.5t-50.5 2h-44v-330h143v-19h-143v-329h44q31 0 50 1t51.5 8t53.5 19t46.5 37t40 60t25 89t10.5 123zM656 350q0 -87 -23 -152t-59 -102t-90 -59.5t-106.5 -29.5t-118.5 -7h-215v13q32 0 50 27.5
t18 78.5v223h-92v19h92v225q0 48 -18 76.5t-50 28.5v13h215q65 0 118.5 -8.5t107 -32t90 -62t59 -102.5t22.5 -149z" />
    <glyph glyph-name="Ntilde" unicode="&#xd1;" horiz-adv-x="807" 
d="M443 767l-115 43q-20 5 -47.5 6.5t-58.5 -12t-43 -40.5l-9 4q17 43 42 70t49 35t45.5 10t34.5 -1l13 -4l114 -44q20 -5 48 -5.5t59 13.5t42 39l10 -4q-17 -43 -42.5 -70.5t-49 -35.5t-45 -9.5t-34.5 2.5zM496 704h286v-12q-30 0 -53.5 -9t-38 -21t-25 -35t-15.5 -38.5
t-7.5 -46.5t-2.5 -44v-43v-455h-32l-425 548v-298q0 -31 0.5 -49t4 -50.5t12 -52.5t22 -42t37.5 -32.5t55 -10.5v-13h-289v13q30 0 53.5 9t38.5 21.5t26 35t16 40t7.5 46t3 43.5t0.5 42v313l-41 53q-12 15 -23 26.5t-19 19t-17.5 13t-14 8.5t-13.5 5t-11.5 2.5t-11 1
t-9.5 0.5v12h185l432 -558v309q0 28 -0.5 43t-2.5 44t-7 46t-14.5 39.5t-23 34.5t-35 21t-48.5 9v12z" />
    <glyph glyph-name="Ograve" unicode="&#xd2;" horiz-adv-x="738" 
d="M575 347q0 -100 -15.5 -169t-45 -106t-65.5 -52.5t-83 -15.5q-48 0 -83.5 15.5t-65.5 52.5t-45.5 106t-15.5 169t15.5 170.5t45 109.5t66 56t83.5 17q98 0 153.5 -80.5t55.5 -272.5zM691 347q0 158 -84 262t-241 104t-241 -104t-84 -262q0 -157 83.5 -256.5t241.5 -99.5
t241.5 99.5t83.5 256.5zM325 897l177 -163h-23l-235 138z" />
    <glyph glyph-name="Oacute" unicode="&#xd3;" horiz-adv-x="738" 
d="M575 347q0 192 -55.5 272.5t-153.5 80.5q-47 0 -83.5 -17t-66 -56t-45 -109.5t-15.5 -170.5t15.5 -169t45.5 -106t65.5 -52.5t83.5 -15.5q47 0 83 15.5t65.5 52.5t45 106t15.5 169zM691 347q0 -157 -83.5 -256.5t-241.5 -99.5t-241.5 99.5t-83.5 256.5q0 158 84 262
t241 104t241 -104t84 -262zM246 734l177 163l81 -25l-235 -138h-23z" />
    <glyph glyph-name="Ocircumflex" unicode="&#xd4;" horiz-adv-x="738" 
d="M575 347q0 -100 -15.5 -169t-45 -106t-65.5 -52.5t-83 -15.5q-48 0 -83.5 15.5t-65.5 52.5t-45.5 106t-15.5 169t15.5 170.5t45 109.5t66 56t83.5 17q98 0 153.5 -80.5t55.5 -272.5zM691 347q0 158 -84 262t-241 104t-241 -104t-84 -262q0 -157 83.5 -256.5t241.5 -99.5
t241.5 99.5t83.5 256.5zM488 735l-119 102l-119 -102h-23l142 188l143 -188h-24z" />
    <glyph glyph-name="Otilde" unicode="&#xd5;" horiz-adv-x="738" 
d="M300 810q-20 5 -47.5 6.5t-58.5 -12t-43 -40.5l-9 4q17 43 42 70t49 35t45.5 10t34.5 -1l13 -4l114 -44q20 -5 48 -5.5t59 13.5t42 39l10 -4q-17 -43 -42.5 -70.5t-49 -35.5t-45 -9.5t-34.5 2.5l-13 3zM575 347q0 -100 -15.5 -169t-45 -106t-65.5 -52.5t-83 -15.5
q-48 0 -83.5 15.5t-65.5 52.5t-45.5 106t-15.5 169t15.5 170.5t45 109.5t66 56t83.5 17q98 0 153.5 -80.5t55.5 -272.5zM691 347q0 158 -84 262t-241 104t-241 -104t-84 -262q0 -157 83.5 -256.5t241.5 -99.5t241.5 99.5t83.5 256.5z" />
    <glyph glyph-name="Odieresis" unicode="&#xd6;" horiz-adv-x="738" 
d="M401 827q0 20 13.5 33.5t32.5 13.5t33 -14t14 -33t-14 -32.5t-33 -13.5t-32.5 13.5t-13.5 32.5zM241 827q0 19 13.5 33t32.5 14t33 -14t14 -33t-13.5 -32.5t-33.5 -13.5q-19 0 -32.5 13.5t-13.5 32.5zM575 347q0 192 -55.5 272.5t-153.5 80.5q-47 0 -83.5 -17t-66 -56
t-45 -109.5t-15.5 -170.5t15.5 -169t45.5 -106t65.5 -52.5t83.5 -15.5q47 0 83 15.5t65.5 52.5t45 106t15.5 169zM691 347q0 -157 -83.5 -256.5t-241.5 -99.5t-241.5 99.5t-83.5 256.5q0 158 84 262t241 104t241 -104t84 -262z" />
    <glyph glyph-name="multiply" unicode="&#xd7;" horiz-adv-x="600" 
d="M349 255l192 -192l-49 -50l-192 192l-191 -192l-50 50l192 192l-191 189l50 51l190 -190l191 190l49 -50z" />
    <glyph glyph-name="Oslash" unicode="&#xd8;" horiz-adv-x="739" 
d="M367 4q47 0 83 15.5t65.5 52.5t45 106.5t15.5 169.5q0 160 -46 249l-310 -520q48 -73 147 -73zM157 348q0 -167 52 -254l312 523q-50 83 -154 83q-47 0 -83.5 -17t-66 -56t-45 -109t-15.5 -170zM564 653q63 -49 95.5 -129t32.5 -176q0 -158 -83.5 -257.5t-241.5 -99.5
q-98 0 -173 43l-41 -69h-21l47 79q-68 46 -102.5 125t-34.5 179q0 102 34.5 183t109.5 131.5t181 50.5q109 0 182 -49l49 81h21z" />
    <glyph glyph-name="Ugrave" unicode="&#xd9;" horiz-adv-x="716" 
d="M308 897l177 -163h-23l-235 138zM322 -9q103 0 173 60t70 185v272v40.5t2.5 36t7 36t13.5 27.5t22.5 24t34.5 13t48 6v13h-260v-13q28 0 49 -6.5t34 -21t20.5 -28.5t10.5 -38.5t4 -41.5t1 -47v-272q0 -94 -51 -147t-130 -53q-82 0 -132 51.5t-50 143.5v372q0 54 20 71
t59 17v13h-249v-13q35 0 53 -19.5t18 -67.5v-364q0 -118 65 -183.5t167 -65.5z" />
    <glyph glyph-name="Uacute" unicode="&#xda;" horiz-adv-x="716" 
d="M322 -9q-102 0 -167 65.5t-65 183.5v364q0 48 -18 67.5t-53 19.5v13h249v-13q-39 0 -59 -17t-20 -71v-372q0 -92 50 -143.5t132 -51.5q79 0 130 53t51 147v272q0 30 -1 47t-4 41.5t-10.5 38.5t-20.5 28.5t-34 21t-49 6.5v13h260v-13q-27 0 -48 -6t-34.5 -13t-22.5 -24
t-13.5 -27.5t-7 -36t-2.5 -36v-40.5v-272q0 -125 -70 -185t-173 -60zM233 734l177 163l81 -25l-235 -138h-23z" />
    <glyph glyph-name="Ucircumflex" unicode="&#xdb;" horiz-adv-x="716" 
d="M472 735l-119 102l-119 -102h-23l142 188l143 -188h-24zM322 -9q103 0 173 60t70 185v272v40.5t2.5 36t7 36t13.5 27.5t22.5 24t34.5 13t48 6v13h-260v-13q28 0 49 -6.5t34 -21t20.5 -28.5t10.5 -38.5t4 -41.5t1 -47v-272q0 -94 -51 -147t-130 -53q-82 0 -132 51.5
t-50 143.5v372q0 54 20 71t59 17v13h-249v-13q35 0 53 -19.5t18 -67.5v-364q0 -118 65 -183.5t167 -65.5z" />
    <glyph glyph-name="Udieresis" unicode="&#xdc;" horiz-adv-x="716" 
d="M389 827q0 20 13.5 33.5t32.5 13.5t33 -14t14 -33t-14 -32.5t-33 -13.5t-32.5 13.5t-13.5 32.5zM229 827q0 19 13.5 33t32.5 14t33 -14t14 -33t-13.5 -32.5t-33.5 -13.5q-19 0 -32.5 13.5t-13.5 32.5zM322 -9q-102 0 -167 65.5t-65 183.5v364q0 48 -18 67.5t-53 19.5v13
h249v-13q-39 0 -59 -17t-20 -71v-372q0 -92 50 -143.5t132 -51.5q79 0 130 53t51 147v272q0 30 -1 47t-4 41.5t-10.5 38.5t-20.5 28.5t-34 21t-49 6.5v13h260v-13q-27 0 -48 -6t-34.5 -13t-22.5 -24t-13.5 -27.5t-7 -36t-2.5 -36v-40.5v-272q0 -125 -70 -185t-173 -60z" />
    <glyph glyph-name="Yacute" unicode="&#xdd;" horiz-adv-x="692" 
d="M421 704h257v-12q-22 0 -36 -4.5t-39.5 -23.5t-57.5 -67.5t-72 -126.5l-77 -156v-202q0 -56 19.5 -77.5t55.5 -21.5v-13h-244v13q36 0 55.5 21.5t19.5 77.5v176l-188 326q-21 36 -41 54t-31 21t-33 4v11h257v-11q-13 0 -20.5 -0.5t-19 -6.5t-13.5 -17t4.5 -34t25.5 -56
l146 -247l75 155q11 23 18 40t15.5 43.5t8 45.5t-6 37.5t-26 28.5t-52.5 10v12zM236 734l177 163l81 -25l-235 -138h-23z" />
    <glyph glyph-name="Thorn" unicode="&#xde;" horiz-adv-x="580" 
d="M209 565v-375h18q34 0 51.5 0.5t45.5 4t43 10.5t33.5 20.5t27.5 33t15.5 49t6.5 68.5q0 35 -4 62.5t-14.5 47t-20.5 33.5t-29 22.5t-32 13.5t-39 7t-40 2.5t-44 0.5h-18zM227 177h-18v-60q0 -50 18 -77t50 -27v-13h-232v13q32 0 49.5 27t17.5 77v485q0 89 -67 89v13h232
v-13q-68 0 -68 -89v-24h18q66 0 111.5 -4t90.5 -16t71.5 -34t42.5 -59t16 -89t-16 -88.5t-42.5 -58t-71.5 -33.5t-90.5 -15.5t-111.5 -3.5z" />
    <glyph glyph-name="germandbls" unicode="&#xdf;" horiz-adv-x="584" 
d="M560 202q0 -96 -54.5 -153.5t-169.5 -57.5q-38 0 -63 14.5t-33 32.5q-13 27 -1 50q9 16 27 20.5t34 -3.5q15 -8 20 -27t-3 -34q-9 -16 -26 -20q-9 -3 3 -11q15 -9 42 -9q119 0 116 205q-1 46 -14 82t-33 57.5t-46.5 36t-50.5 20t-48 5.5v12q121 0 121 156
q0 46 -12.5 78.5t-26 47t-36 22t-30 8t-20.5 0.5q-44 0 -68.5 -47t-27.5 -94l-2 -47v-546h-130v12q26 8 33 33t7 72v386q0 244 188 244q213 0 213 -173q0 -43 -18.5 -76t-44 -48.5t-45.5 -23t-31 -7.5q31 0 66.5 -10.5t74 -33t64 -68t25.5 -105.5z" />
    <glyph glyph-name="agrave" unicode="&#xe0;" horiz-adv-x="485" 
d="M297 247q-167 -40 -167 -132q0 -28 19 -53.5t60 -25.5q62 0 88 62v149zM432 38q23 0 30 26l12 -5q-5 -25 -30.5 -46.5t-61.5 -21.5q-3 0 -8.5 0.5t-19.5 4.5t-25 12t-20.5 25.5t-11.5 41.5q-11 -36 -50.5 -60t-91.5 -24q-5 0 -12.5 0.5t-27 6t-34.5 15.5t-27.5 31
t-12.5 50q0 25 6 44t23.5 34.5t33 25.5t52 22t62 19l79.5 21v58q0 79 -36.5 115t-95.5 9q-18 -9 -29 -18.5t-11.5 -14t1.5 -6.5q20 -3 31 -18t8.5 -34.5t-18.5 -30.5q-15 -12 -34 -9.5t-30 18.5q-19 25 -5 49q20 43 78 74q19 10 42 14.5t36 4.5h14q77 0 108 -51.5t31 -148.5
v-170v-7t2.5 -15t6.5 -19t13.5 -15t22.5 -7zM192 703l177 -163h-23l-235 138z" />
    <glyph glyph-name="aacute" unicode="&#xe1;" horiz-adv-x="485" 
d="M297 247q-167 -40 -167 -132q0 -28 19 -53.5t60 -25.5q62 0 88 62v149zM432 38q23 0 30 26l12 -5q-5 -25 -30.5 -46.5t-61.5 -21.5q-3 0 -8.5 0.5t-19.5 4.5t-25 12t-20.5 25.5t-11.5 41.5q-11 -36 -50.5 -60t-91.5 -24q-5 0 -12.5 0.5t-27 6t-34.5 15.5t-27.5 31
t-12.5 50q0 25 6 44t23.5 34.5t33 25.5t52 22t62 19l79.5 21v58q0 79 -36.5 115t-95.5 9q-18 -9 -29 -18.5t-11.5 -14t1.5 -6.5q20 -3 31 -18t8.5 -34.5t-18.5 -30.5q-15 -12 -34 -9.5t-30 18.5q-19 25 -5 49q20 43 78 74q19 10 42 14.5t36 4.5h14q77 0 108 -51.5t31 -148.5
v-170v-7t2.5 -15t6.5 -19t13.5 -15t22.5 -7zM123 540l177 163l81 -25l-235 -138h-23z" />
    <glyph glyph-name="acircumflex" unicode="&#xe2;" horiz-adv-x="485" 
d="M297 247q-167 -40 -167 -132q0 -28 19 -53.5t60 -25.5q62 0 88 62v149zM432 38q23 0 30 26l12 -5q-5 -25 -30.5 -46.5t-61.5 -21.5q-3 0 -8.5 0.5t-19.5 4.5t-25 12t-20.5 25.5t-11.5 41.5q-11 -36 -50.5 -60t-91.5 -24q-5 0 -12.5 0.5t-27 6t-34.5 15.5t-27.5 31
t-12.5 50q0 25 6 44t23.5 34.5t33 25.5t52 22t62 19l79.5 21v58q0 79 -36.5 115t-95.5 9q-18 -9 -29 -18.5t-11.5 -14t1.5 -6.5q20 -3 31 -18t8.5 -34.5t-18.5 -30.5q-15 -12 -34 -9.5t-30 18.5q-19 25 -5 49q20 43 78 74q19 10 42 14.5t36 4.5h14q77 0 108 -51.5t31 -148.5
v-170v-7t2.5 -15t6.5 -19t13.5 -15t22.5 -7zM369 517l-119 102l-119 -102h-23l142 188l143 -188h-24z" />
    <glyph glyph-name="atilde" unicode="&#xe3;" horiz-adv-x="485" 
d="M300 562l-115 43q-20 5 -47.5 6.5t-58.5 -12t-43 -40.5l-9 4q17 43 42 69.5t49 34.5t45.5 10t34.5 -1l13 -4l114 -43q20 -5 48 -6t59 13.5t42 39.5l10 -5q-17 -43 -42.5 -70t-49 -35t-45 -9.5t-34.5 1.5zM297 247q-167 -40 -167 -132q0 -28 19 -53.5t60 -25.5q62 0 88 62
v149zM432 38q23 0 30 26l12 -5q-5 -25 -30.5 -46.5t-61.5 -21.5q-3 0 -8.5 0.5t-19.5 4.5t-25 12t-20.5 25.5t-11.5 41.5q-11 -36 -50.5 -60t-91.5 -24q-5 0 -12.5 0.5t-27 6t-34.5 15.5t-27.5 31t-12.5 50q0 25 6 44t23.5 34.5t33 25.5t52 22t62 19l79.5 21v58
q0 79 -36.5 115t-95.5 9q-18 -9 -29 -18.5t-11.5 -14t1.5 -6.5q20 -3 31 -18t8.5 -34.5t-18.5 -30.5q-15 -12 -34 -9.5t-30 18.5q-19 25 -5 49q20 43 78 74q19 10 42 14.5t36 4.5h14q77 0 108 -51.5t31 -148.5v-170v-7t2.5 -15t6.5 -19t13.5 -15t22.5 -7z" />
    <glyph glyph-name="adieresis" unicode="&#xe4;" horiz-adv-x="485" 
d="M323 569q-19 0 -32.5 13.5t-13.5 33.5t13.5 33.5t32.5 13.5t33 -13.5t14 -33.5t-14 -33.5t-33 -13.5zM118 616q0 20 13.5 33.5t32.5 13.5t32.5 -14t13.5 -33t-13.5 -33t-32.5 -14t-32.5 13.5t-13.5 33.5zM297 247q-167 -40 -167 -132q0 -28 19 -53.5t60 -25.5q62 0 88 62
v149zM432 38q23 0 30 26l12 -5q-5 -25 -30.5 -46.5t-61.5 -21.5q-3 0 -8.5 0.5t-19.5 4.5t-25 12t-20.5 25.5t-11.5 41.5q-11 -36 -50.5 -60t-91.5 -24q-5 0 -12.5 0.5t-27 6t-34.5 15.5t-27.5 31t-12.5 50q0 25 6 44t23.5 34.5t33 25.5t52 22t62 19l79.5 21v58
q0 79 -36.5 115t-95.5 9q-18 -9 -29 -18.5t-11.5 -14t1.5 -6.5q20 -3 31 -18t8.5 -34.5t-18.5 -30.5q-15 -12 -34 -9.5t-30 18.5q-19 25 -5 49q20 43 78 74q19 10 42 14.5t36 4.5h14q77 0 108 -51.5t31 -148.5v-170v-7t2.5 -15t6.5 -19t13.5 -15t22.5 -7z" />
    <glyph glyph-name="aring" unicode="&#xe5;" horiz-adv-x="485" 
d="M241 703q-27 0 -45.5 -19t-18.5 -46t18.5 -46t45.5 -19t46 19t19 46t-19 46t-46 19zM241 539q-40 0 -69 29t-29 70t29 70t69 29q41 0 70 -29t29 -70t-29 -70t-70 -29zM297 247q-167 -40 -167 -132q0 -28 19 -53.5t60 -25.5q62 0 88 62v149zM432 38q23 0 30 26l12 -5
q-5 -25 -30.5 -46.5t-61.5 -21.5q-3 0 -8.5 0.5t-19.5 4.5t-25 12t-20.5 25.5t-11.5 41.5q-11 -36 -50.5 -60t-91.5 -24q-5 0 -12.5 0.5t-27 6t-34.5 15.5t-27.5 31t-12.5 50q0 25 6 44t23.5 34.5t33 25.5t52 22t62 19l79.5 21v58q0 79 -36.5 115t-95.5 9q-18 -9 -29 -18.5
t-11.5 -14t1.5 -6.5q20 -3 31 -18t8.5 -34.5t-18.5 -30.5q-15 -12 -34 -9.5t-30 18.5q-19 25 -5 49q20 43 78 74q19 10 42 14.5t36 4.5h14q77 0 108 -51.5t31 -148.5v-170v-7t2.5 -15t6.5 -19t13.5 -15t22.5 -7z" />
    <glyph glyph-name="ae" unicode="&#xe6;" horiz-adv-x="706" 
d="M483 458q-47 0 -78 -55.5t-31 -151.5h209q0 106 -29 156.5t-71 50.5zM207 36q36 0 60 22t34 51q-14 37 -16 100l-1 35q-154 -48 -154 -129q0 -29 18 -54t59 -25zM501 44q44 -4 81.5 21t52.5 59l12 -6q-5 -20 -15.5 -39t-29 -40.5t-51 -34.5t-74.5 -13q-59 0 -103.5 28.5
t-64.5 75.5q-11 -47 -52.5 -75.5t-101.5 -28.5q-5 0 -12.5 0.5t-27 6t-34.5 15.5t-27.5 31t-12.5 50q0 64 51.5 94.5t191.5 68.5v61q0 80 -32.5 115t-90.5 8q-37 -18 -39 -34q-1 -4 2 -4q16 -1 29 -18q12 -16 9 -35t-18 -31q-16 -11 -35 -8.5t-30 18.5q-17 23 -5 49
q25 44 77 72q19 10 40 15t33 5l11 1q76 0 108 -73q62 73 140 73q91 0 136.5 -56t45.5 -177h-291q2 -95 32.5 -141.5t94.5 -52.5z" />
    <glyph glyph-name="ccedilla" unicode="&#xe7;" horiz-adv-x="481" 
d="M437 128l11 -5q-11 -49 -57 -90.5t-128 -41.5h-7l-19 -54q65 15 99 -12t28 -70q-4 -32 -23.5 -51t-38.5 -24t-40 -5q-44 0 -66 22q-10 11 -5 25q9 22 31 13q10 -3 14.5 -11.5t0.5 -18.5q-2 -7 -10 -11q-1 -1 1.5 -3t11.5 -4.5t22 -2.5q26 0 43 16t16 44q0 29 -25 55
t-80 14l27 79q-82 8 -140 73t-58 165q0 97 66.5 169t176.5 72q103 0 137 -61q14 -25 1 -49q-10 -16 -29 -21.5t-35 4.5q-17 10 -22 28.5t5 34.5q11 19 28 21q8 2 -7 12q-28 18 -78 18q-15 0 -31.5 -4.5t-38.5 -18.5t-39 -36.5t-29 -63.5t-12 -94q0 -92 43 -140.5t103 -54.5
q51 -4 94.5 22t58.5 60z" />
    <glyph glyph-name="egrave" unicode="&#xe8;" horiz-adv-x="491" 
d="M364 253h-234q0 90 37.5 147.5t83.5 57.5q42 0 77.5 -52.5t35.5 -152.5zM422 123q-13 -37 -58.5 -61t-90.5 -19q-138 14 -143 197h320q0 114 -53 172.5t-143 58.5q-94 0 -156 -67.5t-62 -176.5q0 -100 60.5 -168t153.5 -68q79 0 126 41t58 86zM208 703l177 -163h-23
l-235 138z" />
    <glyph glyph-name="eacute" unicode="&#xe9;" horiz-adv-x="491" 
d="M130 253h234q0 100 -35.5 152.5t-77.5 52.5q-46 0 -83.5 -57.5t-37.5 -147.5zM422 123l12 -5q-11 -45 -58 -86t-126 -41q-93 0 -153.5 68t-60.5 168q0 109 62 176.5t156 67.5q90 0 143 -58.5t53 -172.5h-320q5 -183 143 -197q45 -5 90.5 19t58.5 61zM110 540l177 163
l81 -25l-235 -138h-23z" />
    <glyph glyph-name="ecircumflex" unicode="&#xea;" horiz-adv-x="491" 
d="M364 253h-234q0 90 37.5 147.5t83.5 57.5q42 0 77.5 -52.5t35.5 -152.5zM422 123q-13 -37 -58.5 -61t-90.5 -19q-138 14 -143 197h320q0 114 -53 172.5t-143 58.5q-94 0 -156 -67.5t-62 -176.5q0 -100 60.5 -168t153.5 -68q79 0 126 41t58 86zM363 517l-119 102
l-119 -102h-23l142 188l143 -188h-24z" />
    <glyph glyph-name="edieresis" unicode="&#xeb;" horiz-adv-x="491" 
d="M333 569q-19 0 -32.5 13.5t-13.5 33.5t13.5 33.5t32.5 13.5t32.5 -14t13.5 -33t-13.5 -33t-32.5 -14zM251 458q-46 0 -83.5 -57.5t-37.5 -147.5h234q0 100 -35.5 152.5t-77.5 52.5zM273 43q45 -5 90.5 19t58.5 61l12 -5q-11 -45 -58 -86t-126 -41q-93 0 -153.5 68
t-60.5 168q0 109 62 176.5t156 67.5q90 0 143 -58.5t53 -172.5h-320q5 -183 143 -197zM173 569q-19 0 -32.5 13.5t-13.5 33.5t13.5 33.5t32.5 13.5t33 -13.5t14 -33.5t-14 -33.5t-33 -13.5z" />
    <glyph glyph-name="igrave" unicode="&#xec;" horiz-adv-x="245" 
d="M207 13q-26 7 -33.5 22t-7.5 58v378l-138 -29v-12q31 -8 41 -20.5t10 -39.5v-277q0 -42 -6.5 -57t-33.5 -23v-13h168v13zM72 703l177 -163h-23l-235 138z" />
    <glyph glyph-name="iacute" unicode="&#xed;" horiz-adv-x="245" 
d="M207 13v-13h-168v13q27 8 33.5 23t6.5 57v277q0 27 -10 39.5t-41 20.5v12l138 29v-378q0 -43 7.5 -58t33.5 -22zM2 540l177 163l81 -25l-235 -138h-23z" />
    <glyph glyph-name="icircumflex" unicode="&#xee;" horiz-adv-x="245" 
d="M207 13q-26 7 -33.5 22t-7.5 58v378l-138 -29v-12q31 -8 41 -20.5t10 -39.5v-277q0 -42 -6.5 -57t-33.5 -23v-13h168v13zM242 517l-119 102l-119 -102h-23l142 188l143 -188h-24z" />
    <glyph glyph-name="idieresis" unicode="&#xef;" horiz-adv-x="245" 
d="M197 569q-19 0 -32.5 13.5t-13.5 33.5t13.5 33.5t32.5 13.5t32.5 -14t13.5 -33t-13.5 -33t-32.5 -14zM37 569q-19 0 -32.5 13.5t-13.5 33.5t13.5 33.5t32.5 13.5t33 -13.5t14 -33.5t-14 -33.5t-33 -13.5zM207 13v-13h-168v13q27 8 33.5 23t6.5 57v277q0 27 -10 39.5
t-41 20.5v12l138 29v-378q0 -43 7.5 -58t33.5 -22z" />
    <glyph glyph-name="eth" unicode="&#xf0;" horiz-adv-x="542" 
d="M391 331v2q-22 40 -55.5 59t-65.5 19q-58 0 -91 -55t-35 -153q-6 -199 107 -199q76 0 108 76t32 251zM378 636q51 -51 85 -132t34 -176q0 -156 -61.5 -246.5t-184.5 -90.5q-91 0 -154 57.5t-59 165.5q3 94 54.5 158.5t147.5 64.5q108 0 151 -80q-1 71 -18.5 140.5
t-44.5 113.5l-158 -81l-14 11l164 85q-56 74 -152 74v13q110 0 196 -65l101 54l15 -12z" />
    <glyph glyph-name="ntilde" unicode="&#xf1;" horiz-adv-x="506" 
d="M302 562l-115 43q-20 5 -47.5 6.5t-58.5 -12t-43 -40.5l-9 4q17 43 42 69.5t49 34.5t45.5 10t34.5 -1l13 -4l114 -43q20 -5 48 -6t59 13.5t42 39.5l10 -5q-17 -43 -42.5 -70t-49 -35t-45 -9.5t-34.5 1.5zM480 12v-12h-168v12q27 8 33.5 23.5t6.5 57.5v215
q0 52 -26.5 82.5t-75.5 30.5q-36 0 -65.5 -28t-36.5 -58v-243q0 -42 7.5 -57t33.5 -22v-13h-168v13q27 8 33 22.5t6 56.5v279q0 27 -9.5 39t-40.5 20v12l138 29v-105q16 43 61 74t92 31q138 0 138 -160v-218q0 -42 7.5 -58t33.5 -23z" />
    <glyph glyph-name="ograve" unicode="&#xf2;" horiz-adv-x="552" 
d="M398 231q0 -128 -32.5 -177.5t-94.5 -49.5q-63 0 -96 49.5t-33 177.5t33 177.5t96 49.5q62 0 94.5 -49.5t32.5 -177.5zM501 231q0 104 -60 172t-170 68t-170.5 -68t-60.5 -172q0 -103 60.5 -171.5t170.5 -68.5t170 68t60 172zM222 703l177 -163h-23l-235 138z" />
    <glyph glyph-name="oacute" unicode="&#xf3;" horiz-adv-x="542" 
d="M398 231q0 128 -32.5 177.5t-94.5 49.5q-63 0 -96 -49.5t-33 -177.5t33 -177.5t96 -49.5q62 0 94.5 49.5t32.5 177.5zM501 231q0 -104 -60 -172t-170 -68t-170.5 68.5t-60.5 171.5q0 104 60.5 172t170.5 68t170 -68t60 -172zM139 540l177 163l81 -25l-235 -138h-23z" />
    <glyph glyph-name="ocircumflex" unicode="&#xf4;" horiz-adv-x="542" 
d="M398 231q0 -128 -32.5 -177.5t-94.5 -49.5q-63 0 -96 49.5t-33 177.5t33 177.5t96 49.5q62 0 94.5 -49.5t32.5 -177.5zM501 231q0 104 -60 172t-170 68t-170.5 -68t-60.5 -172q0 -103 60.5 -171.5t170.5 -68.5t170 68t60 172zM390 517l-119 102l-119 -102h-23l142 188
l143 -188h-24z" />
    <glyph glyph-name="otilde" unicode="&#xf5;" horiz-adv-x="542" 
d="M206 605q-20 5 -47.5 6.5t-58.5 -12t-43 -40.5l-9 4q17 43 42 69.5t49 34.5t45.5 10t34.5 -1l13 -4l114 -43q20 -5 48 -6t59 13.5t42 39.5l10 -5q-17 -43 -42.5 -70t-49 -35t-45 -9.5t-34.5 1.5l-13 4zM398 231q0 -128 -32.5 -177.5t-94.5 -49.5q-63 0 -96 49.5
t-33 177.5t33 177.5t96 49.5q62 0 94.5 -49.5t32.5 -177.5zM501 231q0 104 -60 172t-170 68t-170.5 -68t-60.5 -172q0 -103 60.5 -171.5t170.5 -68.5t170 68t60 172z" />
    <glyph glyph-name="odieresis" unicode="&#xf6;" horiz-adv-x="542" 
d="M352 569q-19 0 -32.5 13.5t-13.5 33.5t13.5 33.5t32.5 13.5t32.5 -14t13.5 -33t-13.5 -33t-32.5 -14zM192 569q-19 0 -32.5 13.5t-13.5 33.5t13.5 33.5t32.5 13.5q20 0 33.5 -13.5t13.5 -33.5t-13.5 -33.5t-33.5 -13.5zM398 231q0 -128 -32.5 -177.5t-94.5 -49.5
q-63 0 -96 49.5t-33 177.5t33 177.5t96 49.5q62 0 94.5 -49.5t32.5 -177.5zM501 231q0 104 -60 172t-170 68t-170.5 -68t-60.5 -172q0 -103 60.5 -171.5t170.5 -68.5t170 68t60 172z" />
    <glyph glyph-name="divide" unicode="&#xf7;" horiz-adv-x="625" 
d="M312 439q-22 0 -38.5 16.5t-16.5 38.5t16.5 38.5t38.5 16.5q23 0 39 -16t16 -39t-16 -39t-39 -16zM581 244h-536v66h536v-66zM312 5q-22 0 -38.5 16.5t-16.5 38.5q0 23 16 39t39 16t39 -16t16 -39t-16 -39t-39 -16z" />
    <glyph glyph-name="oslash" unicode="&#xf8;" horiz-adv-x="543" 
d="M399 230q0 102 -30 155l-189 -326q28 -55 92 -55q62 0 94.5 49t32.5 177zM89 -67l54 92q-50 30 -76 84t-26 121q0 104 60.5 172.5t170.5 68.5q65 0 116 -27l48 81h16l-52 -88q102 -61 102 -207q0 -103 -60 -171t-170 -68q-65 0 -117 26l-49 -84h-17zM173 75l189 326
q-27 57 -90 57t-96 -50t-33 -178q0 -100 30 -155z" />
    <glyph glyph-name="ugrave" unicode="&#xf9;" horiz-adv-x="522" 
d="M504 24q-32 4 -41.5 14t-9.5 45v388l-134 -19v-12q35 -2 41 -12.5t6 -58.5v-252q-15 -34 -41.5 -55.5t-62.5 -21.5q-47 0 -75 25.5t-28 79.5v326l-142 -19v-12q42 -3 49 -13t7 -60v-225q0 -151 143 -151q49 0 92.5 30t57.5 71v-85q0 -2 0.5 -5.5t6.5 -7.5t17 -2l114 19
v13zM204 703l177 -163h-23l-235 138z" />
    <glyph glyph-name="uacute" unicode="&#xfa;" horiz-adv-x="522" 
d="M504 24v-13l-114 -19q-11 -2 -17 1.5t-7 8.5v5v85q-14 -41 -57.5 -71t-92.5 -30q-143 0 -143 151v225q0 50 -7 60t-49 13v12l142 19v-326q0 -54 28 -79.5t75 -25.5q36 0 62.5 21.5t41.5 55.5v252q0 48 -6 58.5t-41 12.5v12l134 19v-388q0 -35 9.5 -45t41.5 -14zM131 540
l177 163l81 -25l-235 -138h-23z" />
    <glyph glyph-name="ucircumflex" unicode="&#xfb;" horiz-adv-x="522" 
d="M504 24q-32 4 -41.5 14t-9.5 45v388l-134 -19v-12q35 -2 41 -12.5t6 -58.5v-252q-15 -34 -41.5 -55.5t-62.5 -21.5q-47 0 -75 25.5t-28 79.5v326l-142 -19v-12q42 -3 49 -13t7 -60v-225q0 -151 143 -151q49 0 92.5 30t57.5 71v-85q0 -2 0.5 -5.5t6.5 -7.5t17 -2l114 19
v13zM370 517l-119 102l-119 -102h-23l142 188l143 -188h-24z" />
    <glyph glyph-name="udieresis" unicode="&#xfc;" horiz-adv-x="522" 
d="M336 569q-19 0 -32.5 13.5t-13.5 33.5t13.5 33.5t32.5 13.5q20 0 33.5 -13.5t13.5 -33.5t-13.5 -33.5t-33.5 -13.5zM177 569q-19 0 -32.5 13.5t-13.5 33.5t13.5 33.5t32.5 13.5t32.5 -14t13.5 -33t-13.5 -33t-32.5 -14zM504 24v-13l-114 -19q-11 -2 -17 1.5t-7 8.5v5v85
q-14 -41 -57.5 -71t-92.5 -30q-143 0 -143 151v225q0 50 -7 60t-49 13v12l142 19v-326q0 -54 28 -79.5t75 -25.5q36 0 62.5 21.5t41.5 55.5v252q0 48 -6 58.5t-41 12.5v12l134 19v-388q0 -35 9.5 -45t41.5 -14z" />
    <glyph glyph-name="yacute" unicode="&#xfd;" horiz-adv-x="532" 
d="M320 462h194v-13q-16 0 -27 -4t-27 -18.5t-34 -48.5t-39 -89l-156 -423q-23 -64 -62 -92q-11 -9 -28 -11.5t-31 3.5q-20 10 -28 30t1 40q9 21 29.5 28.5t40.5 -1.5t26 -31q4 -14 19 5q10 12 18 33l46 125l-185 404q-21 47 -71 50v13h207v-13q-28 0 -35.5 -18t-1.5 -36
l7 -18l123 -265l68 181q3 6 6 17t7.5 38t2 47.5t-20 37.5t-49.5 16v13zM121 540l177 163l81 -25l-235 -138h-23z" />
    <glyph glyph-name="thorn" unicode="&#xfe;" horiz-adv-x="552" 
d="M406 213q0 228 -139 228q-49 0 -79.5 -32t-35.5 -85v-188q4 -64 38 -98t84 -34q57 0 94.5 49t37.5 160zM511 227q0 -113 -65 -174.5t-169 -61.5q-74 0 -125 38v-205q0 -42 7.5 -55.5t33.5 -20.5v-13h-168v13q27 8 33.5 21.5t6.5 54.5v813q0 26 -10 36.5t-40 16.5v12
l137 29v-338q22 37 64.5 57.5t84.5 20.5q97 0 153.5 -68.5t56.5 -175.5z" />
    <glyph glyph-name="ydieresis" unicode="&#xff;" horiz-adv-x="532" 
d="M343 569q-19 0 -32.5 13.5t-13.5 33.5t13.5 33.5t32.5 13.5t33 -13.5t14 -33.5t-14 -33.5t-33 -13.5zM320 462h194v-13q-16 0 -27 -4t-27 -18.5t-34 -48.5t-39 -89l-156 -423q-23 -64 -62 -92q-11 -9 -28 -11.5t-31 3.5q-20 10 -28 30t1 40q9 21 29.5 28.5t40.5 -1.5
t26 -31q4 -14 19 5q10 12 18 33l46 125l-185 404q-21 47 -71 50v13h207v-13q-28 0 -35.5 -18t-1.5 -36l7 -18l123 -265l68 181q3 6 6 17t7.5 38t2 47.5t-20 37.5t-49.5 16v13zM184 569q-19 0 -32.5 13.5t-13.5 33.5t13.5 33.5t32.5 13.5t32.5 -14t13.5 -33t-13.5 -33
t-32.5 -14z" />
    <glyph glyph-name="Abreve" unicode="&#x102;" 
d="M175 226h252l-131 332zM673 13v-13h-228v13q67 0 21 113l-35 87h-259q-9 -25 -12.5 -37t-10 -37.5t-6.5 -39.5t3.5 -33.5t14 -29.5t30.5 -17t49 -6v-13h-223v13q23 1 37 10t43 62.5t70 163.5l167 455h11l246 -610q12 -29 22 -46t21.5 -24t17.5 -8.5t21 -2.5zM461 906h9
q0 -63 -30.5 -101.5t-97.5 -38.5q-68 0 -99.5 39t-31.5 101h10q0 -34 27 -58.5t94 -24.5q66 0 92.5 24.5t26.5 58.5z" />
    <glyph glyph-name="abreve" unicode="&#x103;" horiz-adv-x="485" 
d="M297 247q-167 -40 -167 -132q0 -28 19 -53.5t60 -25.5q62 0 88 62v149zM432 38q23 0 30 26l12 -5q-5 -25 -30.5 -46.5t-61.5 -21.5q-3 0 -8.5 0.5t-19.5 4.5t-25 12t-20.5 25.5t-11.5 41.5q-11 -36 -50.5 -60t-91.5 -24q-5 0 -12.5 0.5t-27 6t-34.5 15.5t-27.5 31
t-12.5 50q0 25 6 44t23.5 34.5t33 25.5t52 22t62 19l79.5 21v58q0 79 -36.5 115t-95.5 9q-18 -9 -29 -18.5t-11.5 -14t1.5 -6.5q20 -3 31 -18t8.5 -34.5t-18.5 -30.5q-15 -12 -34 -9.5t-30 18.5q-19 25 -5 49q20 43 78 74q19 10 42 14.5t36 4.5h14q77 0 108 -51.5t31 -148.5
v-170v-7t2.5 -15t6.5 -19t13.5 -15t22.5 -7zM379 703h9q0 -63 -30.5 -101.5t-97.5 -38.5q-68 0 -99.5 39t-31.5 101h10q0 -34 27 -58.5t94 -24.5q66 0 92.5 24.5t26.5 58.5z" />
    <glyph glyph-name="Aogonek" unicode="&#x104;" 
d="M673 13v-13h-56q-44 -21 -68.5 -56.5t-16.5 -64.5q5 -21 20.5 -31t28.5 -10l13 1q19 1 30 15.5t11 32.5h13q0 -73 -66 -79q-35 -4 -59 7t-31 23l-6 13q-31 95 102 149h-143v13q67 0 21 113l-35 87h-259q-9 -25 -12.5 -37t-10 -37.5t-6.5 -39.5t3.5 -33.5t14 -29.5
t30.5 -17t49 -6v-13h-223v13q23 1 37 10t43 62.5t70 163.5l167 455h11l246 -610q12 -29 22 -46t21.5 -24t17.5 -8.5t21 -2.5zM175 226h252l-131 332z" />
    <glyph glyph-name="aogonek" unicode="&#x105;" horiz-adv-x="485" 
d="M399 -161q19 1 30 15.5t11 32.5h13q0 -73 -66 -79q-35 -4 -59 7t-30 23l-7 13q-29 87 83 140q-72 10 -77 84q-11 -36 -50.5 -60t-91.5 -24q-5 0 -12.5 0.5t-27 6t-34.5 15.5t-27.5 31t-12.5 50q0 25 6 44t23.5 34.5t33 25.5t52 22t62 19l79.5 21v58q0 79 -36.5 115
t-95.5 9q-18 -9 -29 -18.5t-11.5 -14t1.5 -6.5q20 -3 31 -18t8.5 -34.5t-18.5 -30.5q-15 -12 -34 -9.5t-30 18.5q-19 25 -5 49q20 43 78 74q19 10 42 14.5t36 4.5h14q77 0 108 -51.5t31 -148.5v-170v-7t2.5 -15t6.5 -19t13.5 -15t22.5 -7q23 0 30 26l12 -5q-4 -19 -20 -36.5
t-39 -25.5q-41 -21 -63.5 -56t-14.5 -62q5 -21 20.5 -31t28.5 -10zM297 98v149q-167 -40 -167 -132q0 -28 19 -53.5t60 -25.5q62 0 88 62z" />
    <glyph glyph-name="Cacute" unicode="&#x106;" horiz-adv-x="671" 
d="M603 207h13l12 -154q-54 -36 -106.5 -49t-134.5 -13q-157 0 -252 97.5t-95 263.5q0 167 95 264t252 97q85 0 141 -12.5t100 -48.5l-12 -155h-13q-10 59 -33.5 101t-55 63t-62.5 30t-65 9q-35 0 -63 -7t-58.5 -29t-51 -59t-33.5 -101.5t-13 -151.5q0 -88 13.5 -153.5
t34 -102t51 -58t58.5 -28t62 -6.5q33 0 66.5 11t66.5 33t55.5 63.5t27.5 95.5zM214 734l177 163l81 -25l-235 -138h-23z" />
    <glyph glyph-name="cacute" unicode="&#x107;" horiz-adv-x="481" 
d="M437 128l11 -5q-11 -49 -57 -90.5t-128 -41.5q-88 0 -153 66.5t-65 172.5q0 97 66.5 169t176.5 72q103 0 137 -61q14 -25 1 -49q-10 -16 -29 -21.5t-35 4.5q-17 10 -22 28.5t5 34.5q11 19 28 21q8 2 -7 12q-28 18 -78 18q-15 0 -31.5 -4.5t-38.5 -18.5t-39 -36.5
t-29 -63.5t-12 -94q0 -92 43 -140.5t103 -54.5q51 -4 94.5 22t58.5 60zM131 540l177 163l81 -25l-235 -138h-23z" />
    <glyph glyph-name="Ccaron" unicode="&#x10c;" horiz-adv-x="671" 
d="M603 207h13l12 -154q-54 -36 -106.5 -49t-134.5 -13q-157 0 -252 97.5t-95 263.5q0 167 95 264t252 97q85 0 141 -12.5t100 -48.5l-12 -155h-13q-10 59 -33.5 101t-55 63t-62.5 30t-65 9q-35 0 -63 -7t-58.5 -29t-51 -59t-33.5 -101.5t-13 -151.5q0 -88 13.5 -153.5
t34 -102t51 -58t58.5 -28t62 -6.5q33 0 66.5 11t66.5 33t55.5 63.5t27.5 95.5zM368 820l119 102h24l-143 -188l-142 188h23z" />
    <glyph glyph-name="ccaron" unicode="&#x10d;" horiz-adv-x="481" 
d="M437 128l11 -5q-11 -49 -57 -90.5t-128 -41.5q-88 0 -153 66.5t-65 172.5q0 97 66.5 169t176.5 72q103 0 137 -61q14 -25 1 -49q-10 -16 -29 -21.5t-35 4.5q-17 10 -22 28.5t5 34.5q11 19 28 21q8 2 -7 12q-28 18 -78 18q-15 0 -31.5 -4.5t-38.5 -18.5t-39 -36.5
t-29 -63.5t-12 -94q0 -92 43 -140.5t103 -54.5q51 -4 94.5 22t58.5 60zM257 602l119 102h24l-143 -188l-142 188h23z" />
    <glyph glyph-name="Dcaron" unicode="&#x10e;" horiz-adv-x="716" 
d="M536 350q0 67 -10 120.5t-25.5 88.5t-39.5 60.5t-46.5 39t-53 21t-52 9.5t-50.5 2h-44v-678h44q31 0 50 1t51.5 8t53.5 19t46.5 37t40 60t25 89t10.5 123zM656 350q0 -87 -23 -152t-59 -102t-90 -59.5t-106.5 -29.5t-118.5 -7h-215v13q32 0 50 27.5t18 78.5v467
q0 48 -18 76.5t-50 28.5v13h215q65 0 118.5 -8.5t107 -32t90 -62t59 -102.5t22.5 -149zM301 820l119 102h24l-143 -188l-142 188h23z" />
    <glyph glyph-name="dcaron" unicode="&#x10f;" horiz-adv-x="661" 
d="M546 704h71q0 -35 -11 -67.5t-26.5 -54t-31.5 -37.5t-27 -23l-11 -8l-9 11q5 4 12.5 14t20 55.5t12.5 109.5zM531 23v-13l-109 -18q-12 -2 -19 2.5t-8 9.5l-1 6v55q-22 -36 -64 -55t-83 -19q-98 0 -154.5 69t-56.5 177q0 112 65 173t170 61q70 0 123 -37v208
q0 27 -10.5 38.5t-40.5 17.5v13l137 27v-660q0 -36 10 -45.5t41 -9.5zM394 138v175q0 69 -36 107t-85 38q-57 0 -95 -48.5t-38 -158.5q0 -231 138 -231q50 0 83 33t33 85z" />
    <glyph glyph-name="Dcroat" unicode="&#x110;" horiz-adv-x="711" 
d="M536 350q0 67 -10 120.5t-25.5 88.5t-39.5 60.5t-46.5 39t-53 21t-52 9.5t-50.5 2h-44v-330h143v-19h-143v-329h44q31 0 50 1t51.5 8t53.5 19t46.5 37t40 60t25 89t10.5 123zM656 350q0 -87 -23 -152t-59 -102t-90 -59.5t-106.5 -29.5t-118.5 -7h-215v13q32 0 50 27.5
t18 78.5v223h-92v19h92v225q0 48 -18 76.5t-50 28.5v13h215q65 0 118.5 -8.5t107 -32t90 -62t59 -102.5t22.5 -149z" />
    <glyph glyph-name="dcroat" unicode="&#x111;" horiz-adv-x="569" 
d="M394 138v175q0 69 -36 107t-85 38q-57 0 -95 -48.5t-38 -158.5q0 -231 138 -231q50 0 83 33t33 85zM275 560v19h119v63q0 27 -10.5 38.5t-40.5 17.5v13l137 27v-159h110v-19h-110v-482q0 -36 10 -45.5t41 -9.5v-13l-109 -18q-12 -2 -19 2.5t-8 9.5l-1 6v55
q-22 -36 -64 -55t-83 -19q-98 0 -154.5 69t-56.5 177q0 112 65 173t170 61q70 0 123 -37v126h-119z" />
    <glyph glyph-name="Eogonek" unicode="&#x118;" horiz-adv-x="596" 
d="M521 208h13v-208h-26q-44 -21 -68.5 -56.5t-16.5 -64.5q5 -21 20.5 -31t28.5 -10l13 1q19 1 30 15.5t11 32.5h13q0 -73 -66 -79q-35 -4 -59 7t-30 23l-7 13q-31 95 102 149h-448v13q30 0 42 25t12 79v480q0 50 -11.5 72t-42.5 22v13h490v-180h-13q-3 39 -17.5 69
t-39.5 47.5t-49 28.5t-58.5 15.5t-54 5.5t-47.5 1h-54v-329h65q133 0 138 101h13v-215h-13q-2 35 -19 57.5t-44 31t-42.5 10.5t-32.5 2h-65v-336h46h43.5t47.5 3.5t53.5 10t47.5 21t45.5 34.5t31 52.5t18.5 73.5z" />
    <glyph glyph-name="eogonek" unicode="&#x119;" horiz-adv-x="491" 
d="M422 123l12 -5q-9 -37 -43 -73.5t-91 -48.5q-40 -22 -62.5 -55.5t-14.5 -61.5q5 -21 20.5 -31t28.5 -10l13 1q19 1 30 15.5t11 32.5h13q0 -73 -66 -79q-35 -4 -59 7t-30 23l-7 13q-29 87 81 140h-8q-93 0 -153.5 68t-60.5 168q0 109 62 176.5t156 67.5q90 0 143 -58.5
t53 -172.5h-320q5 -183 143 -197q45 -5 90.5 19t58.5 61zM130 253h234q0 100 -35.5 152.5t-77.5 52.5q-46 0 -83.5 -57.5t-37.5 -147.5z" />
    <glyph glyph-name="Ecaron" unicode="&#x11a;" horiz-adv-x="596" 
d="M521 208h13v-208h-503v13q30 0 42 25t12 79v480q0 50 -11.5 72t-42.5 22v13h490v-180h-13q-3 39 -17.5 69t-39.5 47.5t-49 28.5t-58.5 15.5t-54 5.5t-47.5 1h-54v-329h65q133 0 138 101h13v-215h-13q-2 35 -19 57.5t-44 31t-42.5 10.5t-32.5 2h-65v-336h46h43.5t47.5 3.5
t53.5 10t47.5 21t45.5 34.5t31 52.5t18.5 73.5zM298 820l119 102h24l-143 -188l-142 188h23z" />
    <glyph glyph-name="ecaron" unicode="&#x11b;" horiz-adv-x="491" 
d="M130 253h234q0 100 -35.5 152.5t-77.5 52.5q-46 0 -83.5 -57.5t-37.5 -147.5zM422 123l12 -5q-11 -45 -58 -86t-126 -41q-93 0 -153.5 68t-60.5 168q0 109 62 176.5t156 67.5q90 0 143 -58.5t53 -172.5h-320q5 -183 143 -197q45 -5 90.5 19t58.5 61zM242 602l119 102h24
l-143 -188l-142 188h23z" />
    <glyph glyph-name="dotlessi" unicode="&#x131;" horiz-adv-x="245" 
d="M207 13v-13h-168v13q27 8 33.5 23t6.5 57v277q0 27 -10 39.5t-41 20.5v12l138 29v-378q0 -43 7.5 -58t33.5 -22z" />
    <glyph glyph-name="Lacute" unicode="&#x139;" horiz-adv-x="610" 
d="M538 217h13v-217h-499v13q31 0 43 26t12 80v488q0 45 -15 64.5t-48 19.5v13h238v-13q-36 0 -55 -19.5t-19 -69.5v-589h36q31 0 50 0.5t51.5 4t54.5 11t48.5 22.5t43 36t29.5 54.5t17 75.5zM143 734l177 163l81 -25l-235 -138h-23z" />
    <glyph glyph-name="lacute" unicode="&#x13a;" horiz-adv-x="235" 
d="M201 13v-13h-168v13q27 8 33.5 23t6.5 56v549q0 27 -10 39t-40 18v13l138 27v-646q0 -42 7 -57t33 -22zM-15 763l177 163l81 -25l-235 -138h-23z" />
    <glyph glyph-name="Lcaron" unicode="&#x13d;" horiz-adv-x="606" 
d="M318 704h72q0 -35 -11 -67.5t-27 -54t-32 -37.5t-27 -23l-11 -8l-8 11q2 1 5 4.5t10.5 17.5t13 32t10.5 51.5t5 73.5zM538 217h13v-217h-499v13q31 0 43 26t12 80v488q0 45 -15 64.5t-48 19.5v13h238v-13q-36 0 -55 -19.5t-19 -69.5v-589h36q31 0 50 0.5t51.5 4t54.5 11
t48.5 22.5t43 36t29.5 54.5t17 75.5z" />
    <glyph glyph-name="lcaron" unicode="&#x13e;" horiz-adv-x="362" 
d="M235 704h72q0 -35 -11 -67.5t-27 -54t-32 -37.5t-27 -23l-11 -8l-8 11q2 1 5 4.5t10.5 17.5t13 32t10.5 51.5t5 73.5zM201 13v-13h-168v13q27 8 33.5 23t6.5 56v549q0 27 -10 39t-40 18v13l138 27v-646q0 -42 7 -57t33 -22z" />
    <glyph glyph-name="Lslash" unicode="&#x141;" horiz-adv-x="630" 
d="M563 217h12v-217h-499v13q31 0 43 27.5t12 82.5v167l-123 -69v18l123 69v299q0 45 -15 64.5t-48 19.5v13h238v-13q-36 0 -54.5 -19t-18.5 -70v-237l203 115v-18l-203 -115v-334h36q71 0 124 11.5t85 30t51.5 46t26.5 55t7 61.5z" />
    <glyph glyph-name="lslash" unicode="&#x142;" horiz-adv-x="295" 
d="M11 262v18l90 54v310q0 27 -10 39.5t-40 17.5v13l137 32v-357l85 52v-18l-85 -52v-279q0 -42 7.5 -57t33.5 -22v-13h-168v13q27 8 33.5 23t6.5 56v224z" />
    <glyph glyph-name="Nacute" unicode="&#x143;" horiz-adv-x="807" 
d="M496 704h286v-12q-30 0 -53.5 -9t-38 -21t-25 -35t-15.5 -38.5t-7.5 -46.5t-2.5 -44v-43v-455h-32l-425 548v-298q0 -31 0.5 -49t4 -50.5t12 -52.5t22 -42t37.5 -32.5t55 -10.5v-13h-289v13q30 0 53.5 9t38.5 21.5t26 35t16 40t7.5 46t3 43.5t0.5 42v313l-41 53
q-12 15 -23 26.5t-19 19t-17.5 13t-14 8.5t-13.5 5t-11.5 2.5t-11 1t-9.5 0.5v12h185l432 -558v309q0 28 -0.5 43t-2.5 44t-7 46t-14.5 39.5t-23 34.5t-35 21t-48.5 9v12zM269 734l177 163l81 -25l-235 -138h-23z" />
    <glyph glyph-name="nacute" unicode="&#x144;" horiz-adv-x="506" 
d="M480 12v-12h-168v12q27 8 33.5 23.5t6.5 57.5v215q0 52 -26.5 82.5t-75.5 30.5q-36 0 -65.5 -28t-36.5 -58v-243q0 -42 7.5 -57t33.5 -22v-13h-168v13q27 8 33 22.5t6 56.5v279q0 27 -9.5 39t-40.5 20v12l138 29v-105q16 43 61 74t92 31q138 0 138 -160v-218
q0 -42 7.5 -58t33.5 -23zM130 540l177 163l81 -25l-235 -138h-23z" />
    <glyph glyph-name="Ncaron" unicode="&#x147;" horiz-adv-x="807" 
d="M496 704h286v-12q-30 0 -53.5 -9t-38 -21t-25 -35t-15.5 -38.5t-7.5 -46.5t-2.5 -44v-43v-455h-32l-425 548v-298q0 -31 0.5 -49t4 -50.5t12 -52.5t22 -42t37.5 -32.5t55 -10.5v-13h-289v13q30 0 53.5 9t38.5 21.5t26 35t16 40t7.5 46t3 43.5t0.5 42v313l-41 53
q-12 15 -23 26.5t-19 19t-17.5 13t-14 8.5t-13.5 5t-11.5 2.5t-11 1t-9.5 0.5v12h185l432 -558v309q0 28 -0.5 43t-2.5 44t-7 46t-14.5 39.5t-23 34.5t-35 21t-48.5 9v12zM381 820l119 102h24l-143 -188l-142 188h23z" />
    <glyph glyph-name="ncaron" unicode="&#x148;" horiz-adv-x="506" 
d="M480 12v-12h-168v12q27 8 33.5 23.5t6.5 57.5v215q0 52 -26.5 82.5t-75.5 30.5q-36 0 -65.5 -28t-36.5 -58v-243q0 -42 7.5 -57t33.5 -22v-13h-168v13q27 8 33 22.5t6 56.5v279q0 27 -9.5 39t-40.5 20v12l138 29v-105q16 43 61 74t92 31q138 0 138 -160v-218
q0 -42 7.5 -58t33.5 -23zM262 602l119 102h24l-143 -188l-142 188h23z" />
    <glyph glyph-name="Ohungarumlaut" unicode="&#x150;" horiz-adv-x="738" 
d="M575 347q0 192 -55.5 272.5t-153.5 80.5q-47 0 -83.5 -17t-66 -56t-45 -109.5t-15.5 -170.5t15.5 -169t45.5 -106t65.5 -52.5t83.5 -15.5q47 0 83 15.5t65.5 52.5t45 106t15.5 169zM691 347q0 -157 -83.5 -256.5t-241.5 -99.5t-241.5 99.5t-83.5 256.5q0 158 84 262
t241 104t241 -104t84 -262zM396 735l171 163l86 -24l-235 -139h-22zM226 735l171 163l86 -24l-235 -139h-22z" />
    <glyph glyph-name="ohungarumlaut" unicode="&#x151;" horiz-adv-x="542" 
d="M398 231q0 128 -32.5 177.5t-94.5 49.5q-63 0 -96 -49.5t-33 -177.5t33 -177.5t96 -49.5q62 0 94.5 49.5t32.5 177.5zM501 231q0 -104 -60 -172t-170 -68t-170.5 68.5t-60.5 171.5q0 104 60.5 172t170.5 68t170 -68t60 -172zM273 541l171 163l86 -24l-235 -139h-22z
M103 541l171 163l86 -24l-235 -139h-22z" />
    <glyph glyph-name="OE" unicode="&#x152;" horiz-adv-x="933" 
d="M447 100v497q0 62 -26.5 82t-72.5 20q-63 0 -103 -30.5t-63.5 -110t-23.5 -212.5q0 -81 8.5 -141t24 -98.5t39.5 -62t52.5 -32.5t65.5 -9q45 0 72 20t27 77zM348 713q20 0 67 -9h436v-180h-13q-4 35 -15.5 62t-25.5 44.5t-37 29.5t-40 18t-45 9t-41.5 3.5t-38.5 0.5h-45
v-329h45q15 0 23 0.5t28.5 5.5t32 14.5t23 30.5t12.5 50h13v-215h-13q-1 29 -12.5 50t-23 30.5t-32.5 14.5t-28.5 5h-22.5h-45v-335h36q101 0 147 17q105 40 118 178h13v-208h-447q-39 -9 -69 -9q-156 0 -230.5 97.5t-74.5 257.5q0 77 17 141.5t52.5 116t95.5 80.5t140 29z
" />
    <glyph glyph-name="oe" unicode="&#x153;" horiz-adv-x="788" 
d="M459 247h206q0 106 -29.5 158.5t-69.5 52.5q-46 0 -76.5 -57t-30.5 -154zM719 125l12 -6q-5 -21 -14.5 -40t-27.5 -40.5t-49.5 -34.5t-72.5 -13q-93 0 -153 86q-29 -43 -66.5 -64.5t-95.5 -21.5q-108 0 -159.5 66t-51.5 172q0 107 51.5 174.5t159.5 67.5q107 0 163 -92
q65 92 151 92q181 0 181 -237h-288q1 -93 32.5 -138.5t92.5 -50.5q43 -4 82.5 22t52.5 58zM252 458q-57 0 -83 -49t-26 -180q0 -130 25.5 -177.5t83.5 -47.5q57 0 82 47.5t25 177.5t-25.5 179.5t-81.5 49.5z" />
    <glyph glyph-name="Racute" unicode="&#x154;" horiz-adv-x="643" 
d="M419 513q0 37 -6 65.5t-13.5 47.5t-24 32t-29 19.5t-37 9.5t-39 3.5t-43.5 0.5h-7h-31v-355h31q28 0 41.5 0.5t37 2t34.5 6.5l28 13t25 21t17 31t12.5 44t3.5 59zM637 13v-13h-76h-49t-32.5 7t-23.5 11.5t-16.5 29t-16 42l-16.5 66.5l-16 62q-28 105 -155 105h-47v-219
q0 -50 15.5 -70.5t48.5 -20.5v-13h-224v13q34 0 48 21.5t14 82.5v498q0 45 -14 60.5t-48 15.5v13h191q65 0 109 -4t85 -15.5t64.5 -32t37 -55.5t13.5 -84q0 -96 -48.5 -136.5t-137.5 -46.5q25 -1 40 -3.5t38.5 -15.5t40 -35.5t35 -67t33.5 -107.5q19 -81 107 -88zM164 734
l177 163l81 -25l-235 -138h-23z" />
    <glyph glyph-name="racute" unicode="&#x155;" horiz-adv-x="364" 
d="M286 468q37 4 57 -19q15 -18 13 -40.5t-20 -37.5q-17 -14 -39.5 -12.5t-38.5 19.5q-15 19 -11 38q1 5 -5 5q-21 2 -53 -28q-24 -22 -37 -51v-249q0 -43 7.5 -58t33.5 -22v-13h-169v13q27 8 33.5 23t6.5 57v277q0 27 -10 39.5t-40 20.5v12l138 29v-105q26 47 63 72.5
t71 29.5zM68 540l177 163l81 -25l-235 -138h-23z" />
    <glyph glyph-name="Rcaron" unicode="&#x158;" horiz-adv-x="643" 
d="M419 513q0 37 -6 65.5t-13.5 47.5t-24 32t-29 19.5t-37 9.5t-39 3.5t-43.5 0.5h-7h-31v-355h31q28 0 41.5 0.5t37 2t34.5 6.5l28 13t25 21t17 31t12.5 44t3.5 59zM637 13v-13h-76h-49t-32.5 7t-23.5 11.5t-16.5 29t-16 42l-16.5 66.5l-16 62q-28 105 -155 105h-47v-219
q0 -50 15.5 -70.5t48.5 -20.5v-13h-224v13q34 0 48 21.5t14 82.5v498q0 45 -14 60.5t-48 15.5v13h191q65 0 109 -4t85 -15.5t64.5 -32t37 -55.5t13.5 -84q0 -96 -48.5 -136.5t-137.5 -46.5q25 -1 40 -3.5t38.5 -15.5t40 -35.5t35 -67t33.5 -107.5q19 -81 107 -88zM264 820
l119 102h24l-143 -188l-142 188h23z" />
    <glyph glyph-name="rcaron" unicode="&#x159;" horiz-adv-x="364" 
d="M286 468q37 4 57 -19q15 -18 13 -40.5t-20 -37.5q-17 -14 -39.5 -12.5t-38.5 19.5q-15 19 -11 38q1 5 -5 5q-21 2 -53 -28q-24 -22 -37 -51v-249q0 -43 7.5 -58t33.5 -22v-13h-169v13q27 8 33.5 23t6.5 57v277q0 27 -10 39.5t-40 20.5v12l138 29v-105q26 47 63 72.5
t71 29.5zM175 603l119 102h24l-143 -188l-142 188h23z" />
    <glyph glyph-name="Sacute" unicode="&#x15a;" horiz-adv-x="564" 
d="M479 73l-5.5 -8.5t-19.5 -20t-36 -25t-57 -19.5t-80 -9q-72 0 -131.5 14t-83.5 28l-23 14v192h12q5 -50 17 -89t36 -73.5t68 -53.5t105 -19q73 0 107.5 45.5t19.5 106t-72 100.5l-166 107q-200 133 -109 272q2 3 6 8.5t20 19t35.5 23.5t53.5 18.5t73 8.5
q64 0 121.5 -11.5t82.5 -23.5l25 -12v-168h-14q-4 41 -14.5 73.5t-33 63.5t-65 48t-102.5 17q-40 0 -72 -23.5t-45 -58t6 -77.5t72 -78l165 -109q65 -42 98 -93.5t31.5 -98t-25.5 -89.5zM138 734l177 163l81 -25l-235 -138h-23z" />
    <glyph glyph-name="sacute" unicode="&#x15b;" horiz-adv-x="417" 
d="M350 40q-4 -5 -12 -13.5t-41 -22t-74 -13.5q-54 0 -97.5 10t-60.5 20l-17 10v136h13q17 -163 162 -163q50 0 68 28.5t2.5 65.5t-53.5 62l-101 61q-71 48 -90 95t12 98q1 2 3.5 6t13.5 14t24.5 17.5t37.5 13.5t53 6q51 0 92 -8t56 -16l15 -8v-122h-12q-17 141 -151 141
q-46 0 -65.5 -25.5t-5.5 -61t56 -62.5l101 -63q68 -42 87.5 -98t-16.5 -108zM73 540l177 163l81 -25l-235 -138h-23z" />
    <glyph glyph-name="Scedilla" unicode="&#x15e;" horiz-adv-x="564" 
d="M479 73l-5.5 -8.5t-19.5 -20t-36 -25t-57 -19.5t-80 -9h-24l-19 -54q65 15 99 -12t28 -70q-4 -32 -23.5 -51t-38.5 -24t-40 -5q-44 0 -66 22q-10 11 -5 25q9 22 31 13q10 -3 14.5 -11.5t0.5 -18.5q-2 -7 -10 -11q-1 -1 1.5 -3t11.5 -4.5t22 -2.5q26 0 43 16t16 44
q0 29 -25 55t-80 14l27 79q-61 4 -111 17.5t-70 25.5l-20 12v192h12q5 -50 17 -89t36 -73.5t68 -53.5t105 -19q73 0 107.5 45.5t19.5 106t-72 100.5l-166 107q-200 133 -109 272q2 3 6 8.5t20 19t35.5 23.5t53.5 18.5t73 8.5q64 0 121.5 -11.5t82.5 -23.5l25 -12v-168h-14
q-4 41 -14.5 73.5t-33 63.5t-65 48t-102.5 17q-40 0 -72 -23.5t-45 -58t6 -77.5t72 -78l165 -109q65 -42 98 -93.5t31.5 -98t-25.5 -89.5z" />
    <glyph glyph-name="scedilla" unicode="&#x15f;" horiz-adv-x="417" 
d="M350 40q-4 -5 -12 -13.5t-41 -22t-74 -13.5h-26l-19 -54q65 15 99 -12t28 -70q-4 -32 -23.5 -51t-38.5 -24t-40 -5q-44 0 -66 22q-10 11 -5 25q9 22 31 13q10 -3 14.5 -11.5t0.5 -18.5q-2 -7 -10 -11q-1 -1 1.5 -3t11.5 -4.5t22 -2.5q26 0 43 16t16 44q0 29 -25 55
t-80 14l27 79q-41 3 -75 13t-47 18l-14 8v136h13q17 -163 162 -163q50 0 68 28.5t2.5 65.5t-53.5 62l-101 61q-71 48 -90 95t12 98q1 2 3.5 6t13.5 14t24.5 17.5t37.5 13.5t53 6q51 0 92 -8t56 -16l15 -8v-122h-12q-17 141 -151 141q-46 0 -65.5 -25.5t-5.5 -61t56 -62.5
l101 -63q68 -42 87.5 -98t-16.5 -108z" />
    <glyph glyph-name="Scaron" unicode="&#x160;" horiz-adv-x="564" 
d="M479 73l-5.5 -8.5t-19.5 -20t-36 -25t-57 -19.5t-80 -9q-72 0 -131.5 14t-83.5 28l-23 14v192h12q5 -50 17 -89t36 -73.5t68 -53.5t105 -19q73 0 107.5 45.5t19.5 106t-72 100.5l-166 107q-200 133 -109 272q2 3 6 8.5t20 19t35.5 23.5t53.5 18.5t73 8.5
q64 0 121.5 -11.5t82.5 -23.5l25 -12v-168h-14q-4 41 -14.5 73.5t-33 63.5t-65 48t-102.5 17q-40 0 -72 -23.5t-45 -58t6 -77.5t72 -78l165 -109q65 -42 98 -93.5t31.5 -98t-25.5 -89.5zM264 820l119 102h24l-143 -188l-142 188h23z" />
    <glyph glyph-name="scaron" unicode="&#x161;" horiz-adv-x="417" 
d="M197 580l119 102h24l-143 -188l-142 188h23zM350 40q-4 -5 -12 -13.5t-41 -22t-74 -13.5q-54 0 -97.5 10t-60.5 20l-17 10v136h13q17 -163 162 -163q50 0 68 28.5t2.5 65.5t-53.5 62l-101 61q-71 48 -90 95t12 98q1 2 3.5 6t13.5 14t24.5 17.5t37.5 13.5t53 6q51 0 92 -8
t56 -16l15 -8v-122h-12q-17 141 -151 141q-46 0 -65.5 -25.5t-5.5 -61t56 -62.5l101 -63q68 -42 87.5 -98t-16.5 -108z" />
    <glyph glyph-name="uni0162" unicode="&#x162;" horiz-adv-x="652" 
d="M19 704h612v-176h-13q-1 38 -13.5 67.5t-33.5 46.5t-41.5 28t-44 15t-34 5t-18.5 1h-59v-594q0 -84 73 -84v-13h-125l-22 -63q65 15 99 -12t28 -70q-4 -32 -23.5 -51t-38.5 -24t-40 -5q-44 0 -66 22q-10 11 -5 25q9 22 31 13q10 -3 14.5 -11.5t0.5 -18.5q-2 -7 -10 -11
q-1 -1 1.5 -3t11.5 -4.5t22 -2.5q26 0 43 16t16 44q0 29 -25 55t-80 14l30 87h-106v13q35 0 53.5 18.5t18.5 65.5v594h-59q-16 0 -31 -1t-45 -10t-51 -24.5t-38.5 -49t-18.5 -78.5h-13v176z" />
    <glyph glyph-name="uni0163" unicode="&#x163;" horiz-adv-x="316" 
d="M301 81l6 -3q-11 -34 -45.5 -60.5t-74.5 -26.5h-6l-19 -54q65 15 99 -12t28 -70q-4 -32 -23.5 -51t-38.5 -24t-40 -5q-44 0 -66 22q-10 11 -5 25q9 22 31 13q10 -3 14.5 -11.5t0.5 -18.5q-2 -7 -10 -11q-1 -1 1.5 -3t11.5 -4.5t22 -2.5q26 0 43 16t16 44q0 29 -25 55
t-80 14l27 79q-49 5 -73.5 39t-24.5 113v301h-51l-2 17h53v142l87 14v-156h119l-3 -17h-116v-298q0 -58 20 -82t61 -24q21 0 38.5 11.5t24.5 28.5z" />
    <glyph glyph-name="Tcaron" unicode="&#x164;" horiz-adv-x="652" 
d="M19 704h612v-176h-13q-1 38 -13.5 67.5t-33.5 46.5t-41.5 28t-44 15t-34 5t-18.5 1h-59v-594q0 -84 73 -84v-13h-244v13q35 0 53.5 18.5t18.5 65.5v594h-59q-16 0 -31 -1t-45 -10t-51 -24.5t-38.5 -49t-18.5 -78.5h-13v176zM325 820l119 102h24l-143 -188l-142 188h23z
" />
    <glyph glyph-name="tcaron" unicode="&#x165;" horiz-adv-x="328" 
d="M226 704h72q0 -35 -11 -67.5t-27 -54t-32 -37.5t-27 -23l-11 -8l-8 11q2 1 5 4.5t10.5 17.5t13 32t10.5 51.5t5 73.5zM294 82l10 -5q-11 -35 -43.5 -60.5t-73.5 -25.5q-59 0 -88 33.5t-29 119.5v305h-51l-2 13h53v142l87 14v-156h119l-3 -13h-116v-302q0 -107 76 -107
q21 0 38 12.5t23 29.5z" />
    <glyph glyph-name="Uring" unicode="&#x16e;" horiz-adv-x="716" 
d="M322 -9q-102 0 -167 65.5t-65 183.5v364q0 48 -18 67.5t-53 19.5v13h249v-13q-39 0 -59 -17t-20 -71v-372q0 -92 50 -143.5t132 -51.5q79 0 130 53t51 147v272q0 30 -1 47t-4 41.5t-10.5 38.5t-20.5 28.5t-34 21t-49 6.5v13h260v-13q-27 0 -48 -6t-34.5 -13t-22.5 -24
t-13.5 -27.5t-7 -36t-2.5 -36v-40.5v-272q0 -125 -70 -185t-173 -60zM293 880q0 -26 18 -44t43 -18q26 0 44 18t18 44t-18 44t-44 18t-43.5 -18t-17.5 -44zM260 880q0 39 28 66.5t66 27.5q39 0 66.5 -27.5t27.5 -66.5q0 -38 -27.5 -66t-66.5 -28q-38 0 -66 28t-28 66z" />
    <glyph glyph-name="uring" unicode="&#x16f;" horiz-adv-x="522" 
d="M504 24v-13l-114 -19q-11 -2 -17 1.5t-7 8.5v5v85q-14 -41 -57.5 -71t-92.5 -30q-143 0 -143 151v225q0 50 -7 60t-49 13v12l142 19v-326q0 -54 28 -79.5t75 -25.5q36 0 62.5 21.5t41.5 55.5v252q0 48 -6 58.5t-41 12.5v12l134 19v-388q0 -35 9.5 -45t41.5 -14zM219 615
q0 -26 18 -44t43 -18q26 0 44 18t18 44t-18 44t-44 18t-43.5 -18t-17.5 -44zM186 615q0 39 28 66.5t66 27.5q39 0 66.5 -27.5t27.5 -66.5q0 -38 -27.5 -66t-66.5 -28q-38 0 -66 28t-28 66z" />
    <glyph glyph-name="Uhungarumlaut" unicode="&#x170;" horiz-adv-x="716" 
d="M322 -9q-102 0 -167 65.5t-65 183.5v364q0 48 -18 67.5t-53 19.5v13h249v-13q-39 0 -59 -17t-20 -71v-372q0 -92 50 -143.5t132 -51.5q79 0 130 53t51 147v272q0 30 -1 47t-4 41.5t-10.5 38.5t-20.5 28.5t-34 21t-49 6.5v13h260v-13q-27 0 -48 -6t-34.5 -13t-22.5 -24
t-13.5 -27.5t-7 -36t-2.5 -36v-40.5v-272q0 -125 -70 -185t-173 -60zM388 735l171 163l86 -24l-235 -139h-22zM218 735l171 163l86 -24l-235 -139h-22z" />
    <glyph glyph-name="uhungarumlaut" unicode="&#x171;" horiz-adv-x="522" 
d="M504 24v-13l-114 -19q-11 -2 -17 1.5t-7 8.5v5v85q-14 -41 -57.5 -71t-92.5 -30q-143 0 -143 151v225q0 50 -7 60t-49 13v12l142 19v-326q0 -54 28 -79.5t75 -25.5q36 0 62.5 21.5t41.5 55.5v252q0 48 -6 58.5t-41 12.5v12l134 19v-388q0 -35 9.5 -45t41.5 -14zM278 541
l171 163l86 -24l-235 -139h-22zM108 541l171 163l86 -24l-235 -139h-22z" />
    <glyph glyph-name="Ydieresis" unicode="&#x178;" horiz-adv-x="692" 
d="M383 828q0 20 13.5 33.5t32.5 13.5t33 -14t14 -33t-14 -33t-33 -14t-32.5 13.5t-13.5 33.5zM421 704h257v-12q-22 0 -36 -4.5t-39.5 -23.5t-57.5 -67.5t-72 -126.5l-77 -156v-202q0 -56 19.5 -77.5t55.5 -21.5v-13h-244v13q36 0 55.5 21.5t19.5 77.5v176l-188 326
q-21 36 -41 54t-31 21t-33 4v11h257v-11q-13 0 -20.5 -0.5t-19 -6.5t-13.5 -17t4.5 -34t25.5 -56l146 -247l75 155q11 23 18 40t15.5 43.5t8 45.5t-6 37.5t-26 28.5t-52.5 10v12zM223 828q0 19 13.5 33t32.5 14t33 -13.5t14 -33.5t-14 -33.5t-33 -13.5t-32.5 14t-13.5 33z
" />
    <glyph glyph-name="Zacute" unicode="&#x179;" horiz-adv-x="550" 
d="M159 13h23q151 0 221 54.5t91 165.5h17l-25 -233h-462l380 691h-49q-142 0 -209 -41.5t-88 -147.5h-18l18 202h457zM161 734l177 163l81 -25l-235 -138h-23z" />
    <glyph glyph-name="zacute" unicode="&#x17a;" horiz-adv-x="432" 
d="M389 462l-248 -450q109 0 161 35t63 105h13l-9 -152h-340l259 449q-107 0 -163.5 -26t-67.5 -93h-13l5 132h340zM100 540l177 163l81 -25l-235 -138h-23z" />
    <glyph glyph-name="Zdotaccent" unicode="&#x17b;" horiz-adv-x="550" 
d="M159 13h23q151 0 221 54.5t91 165.5h17l-25 -233h-462l380 691h-49q-142 0 -209 -41.5t-88 -147.5h-18l18 202h457zM285 793q-22 0 -38 16t-16 38t16 37.5t38 15.5t37.5 -15.5t15.5 -37.5t-15.5 -38t-37.5 -16z" />
    <glyph glyph-name="zdotaccent" unicode="&#x17c;" horiz-adv-x="432" 
d="M389 462l-248 -450q109 0 161 35t63 105h13l-9 -152h-340l259 449q-107 0 -163.5 -26t-67.5 -93h-13l5 132h340zM221 573q-23 0 -38.5 15.5t-15.5 38.5q0 22 16 37.5t38 15.5t37.5 -15.5t15.5 -37.5t-15.5 -38t-37.5 -16z" />
    <glyph glyph-name="Zcaron" unicode="&#x17d;" horiz-adv-x="550" 
d="M159 13h23q151 0 221 54.5t91 165.5h17l-25 -233h-462l380 691h-49q-142 0 -209 -41.5t-88 -147.5h-18l18 202h457zM287 820l119 102h24l-143 -188l-142 188h23z" />
    <glyph glyph-name="zcaron" unicode="&#x17e;" horiz-adv-x="432" 
d="M226 580l119 102h24l-143 -188l-142 188h23zM389 462l-248 -450q109 0 161 35t63 105h13l-9 -152h-340l259 449q-107 0 -163.5 -26t-67.5 -93h-13l5 132h340z" />
    <glyph glyph-name="florin" unicode="&#x192;" horiz-adv-x="620" 
d="M581 636q-8 -18 -27 -24.5t-35 2.5q-18 9 -24 27t2 36t27 23q6 1 0 10q-8 13 -39 13q-28 0 -50.5 -41.5t-30.5 -83.5l-9 -41l-24 -176h111l-6 -14h-106l-37 -269q-25 -191 -66 -264.5t-139 -72.5q-66 0 -96 46q-17 26 -3 53q8 18 27 24t36 -2t23.5 -27t-2.5 -37
q-7 -16 -26 -22q-8 -2 -1 -11q9 -12 42 -12q28 0 51 43.5t31 87.5l9 43l59 420h-76l1 14h75q10 79 24.5 138.5t38 110.5t60 78t84.5 27q35 0 59.5 -15.5t33.5 -30.5q17 -26 3 -53z" />
    <glyph glyph-name="uni0218" unicode="&#x218;" horiz-adv-x="564" 
d="M236 -265l-6 8q31 22 44.5 49t11.5 44t-11 18q-24 3 -39 17q-17 17 -17.5 41.5t16.5 41.5t41.5 17t41.5 -17q24 -31 19 -72t-28 -78q-30 -47 -73 -69zM479 73l-5.5 -8.5t-19.5 -20t-36 -25t-57 -19.5t-80 -9q-72 0 -131.5 14t-83.5 28l-23 14v192h12q5 -50 17 -89
t36 -73.5t68 -53.5t105 -19q73 0 107.5 45.5t19.5 106t-72 100.5l-166 107q-200 133 -109 272q2 3 6 8.5t20 19t35.5 23.5t53.5 18.5t73 8.5q64 0 121.5 -11.5t82.5 -23.5l25 -12v-168h-14q-4 41 -14.5 73.5t-33 63.5t-65 48t-102.5 17q-40 0 -72 -23.5t-45 -58t6 -77.5
t72 -78l165 -109q65 -42 98 -93.5t31.5 -98t-25.5 -89.5z" />
    <glyph glyph-name="uni0219" unicode="&#x219;" horiz-adv-x="417" 
d="M175 -265l-6 8q31 22 44.5 49t11.5 44t-11 18q-24 3 -39 17q-17 17 -17.5 41.5t16.5 41.5t41.5 17t41.5 -17q24 -31 19 -72t-28 -78q-30 -47 -73 -69zM350 40q-4 -5 -12 -13.5t-41 -22t-74 -13.5q-54 0 -97.5 10t-60.5 20l-17 10v136h13q17 -163 162 -163q50 0 68 28.5
t2.5 65.5t-53.5 62l-101 61q-71 48 -90 95t12 98q1 2 3.5 6t13.5 14t24.5 17.5t37.5 13.5t53 6q51 0 92 -8t56 -16l15 -8v-122h-12q-17 141 -151 141q-46 0 -65.5 -25.5t-5.5 -61t56 -62.5l101 -63q68 -42 87.5 -98t-16.5 -108z" />
    <glyph glyph-name="uni021A" unicode="&#x21a;" horiz-adv-x="652" 
d="M286 -265l-6 8q31 22 44.5 49t11.5 44t-11 18q-24 3 -39 17q-17 17 -17.5 41.5t16.5 41.5t41.5 17t41.5 -17q24 -31 19 -72t-28 -78q-30 -47 -73 -69zM19 704h612v-176h-13q-1 38 -13.5 67.5t-33.5 46.5t-41.5 28t-44 15t-34 5t-18.5 1h-59v-594q0 -84 73 -84v-13h-244
v13q35 0 53.5 18.5t18.5 65.5v594h-59q-16 0 -31 -1t-45 -10t-51 -24.5t-38.5 -49t-18.5 -78.5h-13v176z" />
    <glyph glyph-name="uni021B" unicode="&#x21b;" horiz-adv-x="316" 
d="M136 -265l-6 8q31 22 44.5 49t11.5 44t-11 18q-24 3 -39 17q-17 17 -17.5 41.5t16.5 41.5t41.5 17t41.5 -17q24 -31 19 -72t-28 -78q-30 -47 -73 -69zM294 82l10 -5q-11 -35 -43.5 -60.5t-73.5 -25.5q-59 0 -88 33.5t-29 119.5v305h-51l-2 13h53v142l87 14v-156h119
l-3 -13h-116v-302q0 -107 76 -107q21 0 38 12.5t23 29.5z" />
    <glyph glyph-name="circumflex" unicode="&#x2c6;" horiz-adv-x="285" 
d="M142 633l-119 -102h-23l142 188l143 -188h-24z" />
    <glyph glyph-name="caron" unicode="&#x2c7;" horiz-adv-x="287" 
d="M142 618l119 102h24l-143 -188l-142 188h23z" />
    <glyph glyph-name="uni02C9" unicode="&#x2c9;" horiz-adv-x="305" 
d="M330 593h-355v56h355v-56z" />
    <glyph glyph-name="breve" unicode="&#x2d8;" horiz-adv-x="257" 
d="M249 703h9q0 -63 -30.5 -101.5t-97.5 -38.5q-68 0 -99.5 39t-31.5 101h10q0 -34 27 -58.5t94 -24.5q66 0 92.5 24.5t26.5 58.5z" />
    <glyph glyph-name="dotaccent" unicode="&#x2d9;" horiz-adv-x="264" 
d="M134 592q-22 0 -38 16t-16 38t16 37.5t38 15.5t37.5 -15.5t15.5 -37.5t-15.5 -38t-37.5 -16z" />
    <glyph glyph-name="ring" unicode="&#x2da;" horiz-adv-x="274" 
d="M78 637q0 -26 18 -44t43 -18q26 0 44 18t18 44t-18 44t-44 18t-43.5 -18t-17.5 -44zM45 637q0 39 28 66.5t66 27.5q39 0 66.5 -27.5t27.5 -66.5q0 -38 -27.5 -66t-66.5 -28q-38 0 -66 28t-28 66z" />
    <glyph glyph-name="ogonek" unicode="&#x2db;" horiz-adv-x="271" 
d="M155 -131q5 -21 20.5 -31t28.5 -10l13 1q19 1 30 15.5t11 32.5h13q0 -73 -66 -79q-35 -4 -59 7t-30 23l-7 13q-35 104 131 160v-11q-44 -21 -68.5 -56.5t-16.5 -64.5z" />
    <glyph glyph-name="tilde" unicode="&#x2dc;" horiz-adv-x="420" 
d="M253 566l-115 43q-20 5 -47.5 6.5t-58.5 -12t-43 -40.5l-9 4q17 43 42 69.5t49 34.5t45.5 10t34.5 -1l13 -4l114 -43q20 -5 48 -6t59 13.5t42 39.5l10 -5q-17 -43 -42.5 -70t-49 -35t-45 -9.5t-34.5 1.5z" />
    <glyph glyph-name="hungarumlaut" unicode="&#x2dd;" horiz-adv-x="516" 
d="M257 557l171 163l86 -24l-235 -139h-22zM87 557l171 163l86 -24l-235 -139h-22z" />
    <glyph glyph-name="uni03A9" unicode="&#x3a9;" horiz-adv-x="703" 
d="M642 138h12l-26 -138h-246q7 36 30.5 82.5t47 86.5t42 113.5t18.5 162.5q0 73 -12 126t-29 81.5t-43 45t-47 20.5t-47 4t-47.5 -4t-47 -21t-43 -45t-29.5 -81t-12 -126q0 -89 18.5 -162.5t42 -113.5t47.5 -86.5t31 -82.5h-247l-26 138h13q13 -33 36.5 -44.5t62.5 -11.5
h111q-4 14 -16 28.5t-35 35.5t-33 32q-110 117 -110 272q0 124 73.5 204.5t210.5 80.5t210.5 -80.5t73.5 -204.5q0 -155 -110 -272q-10 -11 -33 -32t-35 -35.5t-16 -28.5h111q38 0 62 11.5t37 44.5z" />
    <glyph glyph-name="uni03BC" unicode="&#x3bc;" horiz-adv-x="518" 
d="M498 24v-13l-114 -19q-11 -2 -17 1.5t-7 8.5v5v85q-15 -56 -79.5 -87t-127.5 1v-175q0 -36 10 -48t42 -15v-13l-113 -19q-12 -2 -18 1.5t-6 8.5l-1 5v616q0 50 -7 60t-49 13v12l142 19v-333q2 -50 30 -74t73 -24q36 0 62.5 21.5t41.5 55.5v252q0 48 -6 58.5t-41 12.5v12
l134 19v-388q0 -35 9.5 -45t41.5 -14z" />
    <glyph glyph-name="pi" unicode="&#x3c0;" horiz-adv-x="574" 
d="M507 52l11 -5q-6 -25 -26.5 -40.5t-54.5 -15.5q-37 0 -57.5 20.5t-23.5 40.5l-2 21v319h-128l-10 -217q-2 -40 -17.5 -77t-37 -61.5t-42 -43t-35.5 -27.5l-14 -8l-6 9q45 35 72 93t31 121l11 211h-9q-104 -3 -150 -66l-10 7q2 5 6 13.5t18.5 30t32 38t48 30t64.5 14.5
h246q68 0 95.5 11t29.5 50h11q0 -67 -26.5 -97.5t-94.5 -30.5h-14v-294q0 -35 14.5 -50.5t35.5 -15.5q11 0 19 5t10 10z" />
    <glyph glyph-name="uni2010" unicode="&#x2010;" horiz-adv-x="447" 
d="M64 286h315v-64h-315v64z" />
    <glyph glyph-name="endash" unicode="&#x2013;" horiz-adv-x="561" 
d="M0 278h561v-52h-561v52z" />
    <glyph glyph-name="emdash" unicode="&#x2014;" horiz-adv-x="1055" 
d="M0 277h1055v-51h-1055v51z" />
    <glyph glyph-name="quoteleft" unicode="&#x2018;" horiz-adv-x="227" 
d="M162 701l6 -8q-31 -22 -44.5 -49t-11.5 -44t11 -18q24 -3 39 -17q17 -17 17.5 -41.5t-16.5 -41.5t-41.5 -17t-41.5 17q-24 31 -19 72t28 78q30 47 73 69z" />
    <glyph glyph-name="quoteright" unicode="&#x2019;" horiz-adv-x="227" 
d="M75 465l-6 8q31 22 44.5 49t11.5 44t-11 18q-24 3 -39 17q-17 17 -17.5 41.5t16.5 41.5t41.5 17t41.5 -17q24 -31 19 -72t-28 -78q-30 -47 -73 -69z" />
    <glyph glyph-name="quotesinglbase" unicode="&#x201a;" horiz-adv-x="236" 
d="M74 -126l-6 8q31 22 44.5 49t11.5 44t-11 18q-24 3 -39 17q-17 17 -17.5 41.5t16.5 41.5t41.5 17t41.5 -17q24 -31 19 -72t-28 -78q-30 -47 -73 -69z" />
    <glyph glyph-name="quotedblleft" unicode="&#x201c;" horiz-adv-x="437" 
d="M353 708l6 -8q-31 -22 -44.5 -48.5t-12 -43.5t11.5 -19q25 -4 39 -17q17 -17 17.5 -41.5t-16.5 -41.5t-41.5 -17t-41.5 17q-24 31 -19 72t28 78q27 45 73 69zM153 708l7 -8q-31 -22 -45 -48.5t-12 -43.5t11 -19q25 -4 40 -17q17 -17 17.5 -41.5t-16.5 -41.5t-41.5 -17
t-41.5 17q-24 31 -19 72t28 78q27 45 72 69z" />
    <glyph glyph-name="quotedblright" unicode="&#x201d;" horiz-adv-x="428" 
d="M74 463l-6 8q31 22 44.5 48.5t12 43.5t-11.5 19q-25 4 -39 17q-17 17 -17.5 41.5t16.5 41.5t41.5 17t41.5 -17q24 -31 19 -72t-28 -78q-27 -45 -73 -69zM274 463l-7 8q31 22 45 48.5t12 43.5t-11 19q-25 4 -40 17q-17 17 -17.5 41.5t16.5 41.5t41.5 17t41.5 -17
q24 -31 19 -72t-28 -78q-27 -45 -72 -69z" />
    <glyph glyph-name="quotedblbase" unicode="&#x201e;" horiz-adv-x="428" 
d="M73 -125l-6 8q31 22 44.5 48.5t12 43.5t-11.5 19q-25 4 -39 17q-17 17 -17.5 41.5t16.5 41.5t41.5 17t41.5 -17q24 -31 19 -72t-28 -78q-27 -45 -73 -69zM273 -125l-7 8q31 22 45 48.5t12 43.5t-11 19q-25 4 -40 17q-17 17 -17.5 41.5t16.5 41.5t41.5 17t41.5 -17
q24 -31 19 -72t-28 -78q-27 -45 -72 -69z" />
    <glyph glyph-name="dagger" unicode="&#x2020;" horiz-adv-x="392" 
d="M195 645q-18 0 -30.5 12.5t-12.5 30.5q0 17 12.5 29.5t30.5 12.5q17 0 29.5 -12.5t12.5 -29.5q0 -18 -12.5 -30.5t-29.5 -12.5zM109 448q18 -12 34 -39l-4 -3q-8 11 -20.5 17.5t-20 7t-9.5 -1.5q-2 -16 -10 -24q-10 -11 -25.5 -11.5t-26.5 10.5t-11 26t11 26q28 28 82 -8
zM203 403q-2 -53 37 -111q-41 -241 -41 -557h-7q0 310 -42 557q17 27 26.5 54.5t9.5 41.5l1 15q0 32 -9.5 76.5t-9.5 65.5q1 2 0 15.5t6 29.5t21 16t21 -15t6 -31v-15q0 -21 -9.5 -65.5t-9.5 -76.5zM363 456q11 -10 11 -25.5t-11 -26.5t-26.5 -10.5t-25.5 11.5q-9 9 -11 24
q-2 2 -9 2t-19.5 -7t-20.5 -18l-5 3q16 26 35 39q54 36 82 8z" />
    <glyph glyph-name="daggerdbl" unicode="&#x2021;" horiz-adv-x="465" 
d="M240 355q0 -35 16.5 -65t39.5 -44q-56 -40 -56 -108q0 -35 11.5 -77t11.5 -67v-7.5t-1 -16t-3.5 -20.5t-9.5 -16.5t-17 -7.5q-16 0 -24 17t-8 34v17q0 25 11.5 66.5t11.5 77.5q0 35 -16.5 64.5t-39.5 43.5q23 16 39.5 45t16.5 64t-11.5 76.5t-11.5 66.5v7.5t1 16.5
t3.5 21t9.5 16.5t17 7.5q16 0 24 -17.5t8 -34.5v-17q0 -25 -11.5 -66t-11.5 -77zM351 403q-2 2 -10 2t-22.5 -8.5t-24.5 -20.5l-5 4q18 29 39 44q14 10 29.5 16t34 5.5t30.5 -12.5t12 -29t-12 -30q-13 -12 -30 -12t-29 12q-10 10 -12 29zM231 612q-19 0 -33.5 14t-14.5 34
t14 34.5t34 14.5t34.5 -14.5t14.5 -34.5t-14.5 -34t-34.5 -14zM232 -118q20 0 34 -14t14 -34q0 -21 -14 -35t-34 -14t-34.5 14t-14.5 35q0 20 14.5 34t34.5 14zM100 374q-12 -12 -29.5 -12t-30.5 12q-12 13 -12 30t12 29t30.5 12.5t34 -5.5t29.5 -16q23 -16 39 -44l-5 -4
q-10 12 -24 20.5t-22 8.5t-10 -2q-2 -19 -12 -29zM363 120q12 13 29.5 13t30.5 -12q12 -13 12 -30t-12 -29t-30.5 -12.5t-34 5.5t-29.5 16q-23 16 -39 44l4 4q10 -12 24.5 -20.5t22.5 -8.5t10 2q2 18 12 28zM113 92q2 -2 10 -2t22 8.5t24 20.5l5 -4q-18 -29 -39 -44
q-14 -10 -30 -16t-34 -5.5t-30 12.5t-12 29t12 30q13 12 30 12t29 -13q11 -11 13 -28z" />
    <glyph glyph-name="bullet" unicode="&#x2022;" horiz-adv-x="423" 
d="M214 243q-41 0 -70 29t-29 69q0 42 29 70.5t70 28.5t70 -28.5t29 -70.5q0 -41 -29 -69.5t-70 -28.5z" />
    <glyph glyph-name="ellipsis" unicode="&#x2026;" horiz-adv-x="709" 
d="M616 50q0 -24 -17.5 -41t-42.5 -17t-42 17t-17 41q0 25 17 42.5t42 17.5t42.5 -17.5t17.5 -42.5zM409 50q0 -24 -17.5 -41t-41.5 -17q-25 0 -42 17t-17 41q0 25 17 42.5t42 17.5q24 0 41.5 -17.5t17.5 -42.5zM204 50q0 -24 -17.5 -41t-41.5 -17q-25 0 -42 17t-17 41
q0 25 17 42.5t42 17.5q24 0 41.5 -17.5t17.5 -42.5z" />
    <glyph glyph-name="perthousand" unicode="&#x2030;" horiz-adv-x="1073" 
d="M80 496q0 -98 17 -130.5t54 -32.5t53.5 32t16.5 131t-17.5 134.5t-52.5 35.5q-37 0 -54 -35.5t-17 -134.5zM285 496q0 -176 -134 -176t-134 176q0 183 134 183q39 0 66.5 -16t41.5 -44t20 -58t6 -65zM584 38q38 0 54.5 32t16.5 131q0 98 -17.5 134t-53.5 36t-53 -35.5
t-17 -134.5q0 -98 17 -130.5t53 -32.5zM584 384q134 0 134 -183q0 -176 -134 -176t-134 176q0 183 134 183zM113 0l456 704h53l-456 -704h-53zM906 38q37 0 53.5 32t16.5 131t-17.5 134.5t-52.5 35.5q-37 0 -54 -35.5t-17 -134.5q0 -98 17 -130.5t54 -32.5zM906 384
q39 0 66.5 -16t41.5 -44t20 -58t6 -65q0 -176 -134 -176t-134 176q0 183 134 183z" />
    <glyph glyph-name="guilsinglleft" unicode="&#x2039;" horiz-adv-x="339" 
d="M281 505v-26l-149 -213l149 -207v-26l-231 233z" />
    <glyph glyph-name="guilsinglright" unicode="&#x203a;" horiz-adv-x="339" 
d="M48 479v26l231 -239l-231 -233v26l149 207z" />
    <glyph glyph-name="fraction" unicode="&#x2044;" horiz-adv-x="335" 
d="M458 734h45l-605 -734h-44z" />
    <glyph glyph-name="Euro" unicode="&#x20ac;" horiz-adv-x="596" 
d="M222 415h219l-10 -15h-209q0 -3 -0.5 -23.5t-0.5 -24.5t0.5 -23.5t0.5 -22.5h203l-10 -15h-193q4 -89 18 -149t37 -88.5t46 -39t52 -10.5q22 0 45 7.5t48 24.5t40.5 52.5t15.5 85.5h13v-132q-44 -31 -75 -41t-87 -10q-117 0 -179 78t-74 222h-106l10 15h94q-1 15 -1 46
t1 48h-104l10 15h96q26 298 253 298q59 0 91.5 -10t70.5 -41v-132h-13q0 49 -15 85t-39 53t-47.5 24.5t-47.5 7.5q-29 0 -52 -11t-46 -40t-37 -88t-18 -146z" />
    <glyph glyph-name="afii61289" unicode="&#x2113;" horiz-adv-x="340" 
d="M174 533l-1 -213l43 41q46 44 64 115t9.5 130t-30.5 88q-16 20 -36 18q-49 -7 -49 -179zM305 98l11 -4q-5 -44 -35 -73.5t-66 -29.5q-63 0 -96.5 47t-33.5 162v29l-63 -48v36l63 50v249q0 65 13 113t33.5 71.5t45 32.5t48.5 0.5t43 -29.5q33 -38 41.5 -108t-12.5 -144
t-68 -116l-57 -54l-1 -109q-3 -70 17 -108t57 -32q42 9 60 65z" />
    <glyph glyph-name="trademark" unicode="&#x2122;" horiz-adv-x="670" 
d="M613 472q0 -42 34 -42v-13h-105v13q30 0 30 42v192l-94 -251h-10l-107 240v-128q0 -23 1 -35.5t5 -28.5t14 -23.5t26 -7.5v-13h-114v13q23 0 36 15.5t15.5 33.5t2.5 46v147q-12 19 -43 19v13h81l103 -226l84 226h72v-13q-31 0 -31 -36v-183zM13 704h249v-82h-13
q0 24 -9 39.5t-23.5 21t-21.5 7t-14 1.5h-23v-227q0 -34 29 -34v-13h-99v13q29 0 29 34v227h-24q-67 0 -67 -69h-13v82z" />
    <glyph glyph-name="Omega" unicode="&#x2126;" horiz-adv-x="703" 
d="M642 138h12l-26 -138h-246q7 36 30.5 82.5t47 86.5t42 113.5t18.5 162.5q0 73 -12 126t-29 81.5t-43 45t-47 20.5t-47 4t-47.5 -4t-47 -21t-43 -45t-29.5 -81t-12 -126q0 -89 18.5 -162.5t42 -113.5t47.5 -86.5t31 -82.5h-247l-26 138h13q13 -33 36.5 -44.5t62.5 -11.5
h111q-4 14 -16 28.5t-35 35.5t-33 32q-110 117 -110 272q0 124 73.5 204.5t210.5 80.5t210.5 -80.5t73.5 -204.5q0 -155 -110 -272q-10 -11 -33 -32t-35 -35.5t-16 -28.5h111q38 0 62 11.5t37 44.5z" />
    <glyph glyph-name="estimated" unicode="&#x212e;" horiz-adv-x="892" 
d="M170 610v-219h552v215q-114 104 -278 104q-161 0 -274 -100zM444 735q171 0 292 -108t121 -260h-687v-242q114 -101 274 -101q85 0 160.5 31t129.5 85h34q-58 -65 -142.5 -102.5t-181.5 -37.5q-171 0 -292 107.5t-121 259.5t121 260t292 108z" />
    <glyph glyph-name="partialdiff" unicode="&#x2202;" horiz-adv-x="507" 
d="M228 4q106 0 136 333q-10 35 -37 58.5t-56 23.5q-47 0 -85.5 -51t-49.5 -158q-12 -119 11.5 -162.5t80.5 -43.5zM248 744q119 0 173.5 -109.5t40.5 -299.5q-10 -151 -69.5 -247.5t-164.5 -96.5q-99 0 -148 60.5t-39 172.5q8 92 61 161.5t133 69.5q38 0 78.5 -22.5
t53.5 -70.5q11 139 -1.5 222.5t-41 115t-76.5 31.5q-56 0 -103.5 -51.5t-38.5 -108.5l-12 -4l-28 85q21 40 72.5 66t109.5 26z" />
    <glyph glyph-name="Delta" unicode="&#x2206;" horiz-adv-x="714" 
d="M71 36h483l-241 570zM375 738l294 -706l-15 -32h-616l-6 26l1 2l287 692z" />
    <glyph glyph-name="product" unicode="&#x220f;" horiz-adv-x="697" 
d="M590 592v-547q0 -117 72 -117v-13h-252v13q72 0 72 117v544q0 101 -72 101h-117q-36 0 -51.5 -24t-15.5 -77v-544q0 -117 67 -117v-13h-248v13q74 0 74 117v547q0 99 -74 99v13h617v-13q-72 0 -72 -99z" />
    <glyph glyph-name="summation" unicode="&#x2211;" horiz-adv-x="663" 
d="M161 691l216 -375l-242 -401h129q60 0 109 7.5t82.5 18.5t60 30.5t41.5 36.5t27 43t17.5 44.5t11.5 45.5h16l-27 -239h-527l199 338l-254 464h570l20 -204h-17q-23 96 -106 143.5t-201 47.5h-125z" />
    <glyph glyph-name="minus" unicode="&#x2212;" horiz-adv-x="626" 
d="M581 222h-533v63h533v-63z" />
    <glyph glyph-name="uni2215" unicode="&#x2215;" horiz-adv-x="352" 
d="M458 734h65l-605 -734h-64z" />
    <glyph glyph-name="uni2219" unicode="&#x2219;" horiz-adv-x="250" 
d="M126 249q-20 0 -34 14.5t-14 34.5t14 34.5t34 14.5t34.5 -14.5t14.5 -34.5t-14.5 -34.5t-34.5 -14.5z" />
    <glyph glyph-name="radical" unicode="&#x221a;" horiz-adv-x="565" 
d="M359 -8l150 870l34 -10l-180 -1031l-18 -7l-197 462q-17 39 -43.5 56.5t-54.5 6.5l-4 11l136 58z" />
    <glyph glyph-name="infinity" unicode="&#x221e;" horiz-adv-x="799" 
d="M677 406q46 -47 46 -114.5t-46 -114.5q-46 -48 -113 -48q-66 0 -112 48l-58 64q-57 -62 -59 -64q-46 -48 -112 -48t-114 48q-45 47 -44.5 114.5t44.5 115.5q48 48 114 48q65 0 112 -49l59 -63q56 61 58 63q46 49 112 49t113 -49zM159 359q-26 -28 -26 -67q0 -40 27 -67
q25 -27 63 -27q37 0 63 26l60 68q-59 64 -61 67q-24 27 -62 27q-37 0 -64 -27zM628 225q26 28 26 67t-26 67q-27 27 -64 27t-62 -27l-61 -68q58 -63 61 -66q25 -27 62 -27t64 27z" />
    <glyph glyph-name="integral" unicode="&#x222b;" horiz-adv-x="352" 
d="M330 746q-7 -16 -22.5 -23t-31.5 0q-17 7 -24 22.5t0 31.5q5 15 23 22q6 1 -2.5 7.5t-26.5 6.5q-27 0 -41 -43q-18 -52 -9 -160l35 -441q16 -194 -11.5 -286.5t-110.5 -92.5q-55 0 -78 32q-17 24 -7 47q6 17 22 24t32 0t23 -22.5t1 -31.5q-7 -15 -22 -22q-7 -1 2 -8
q10 -8 28 -8q25 0 41 40q20 53 9 164l-35 440q-16 194 12 287t109 93q51 0 78 -32q15 -21 6 -47z" />
    <glyph glyph-name="approxequal" unicode="&#x2248;" horiz-adv-x="515" 
d="M300 319l-115 43q-20 5 -47.5 6.5t-58.5 -12t-43 -40.5l-9 4q17 43 42 69.5t49 34.5t45.5 10t34.5 -2l13 -3l114 -43q20 -5 48 -6t59 13.5t42 39.5l10 -5q-17 -43 -42.5 -70t-49 -35t-45 -9.5t-34.5 2.5zM300 140l-115 43q-20 5 -47.5 6.5t-58.5 -12t-43 -40.5l-9 4
q17 43 42 69.5t49 34.5t45.5 10t34.5 -1l13 -4l114 -43q20 -5 48 -6t59 13.5t42 39.5l10 -5q-17 -43 -42.5 -70t-49 -35t-45 -9.5t-34.5 1.5z" />
    <glyph glyph-name="notequal" unicode="&#x2260;" horiz-adv-x="527" 
d="M480 350h-148l-63 -134h211v-59h-239l-60 -128l-53 25l48 103h-130v59h158l62 134h-220v59h248l65 138l53 -25l-52 -113h120v-59z" />
    <glyph glyph-name="lessequal" unicode="&#x2264;" horiz-adv-x="532" 
d="M162 344l317 -165v-74l-423 217v45l423 217v-76zM47 48h432v-58h-432v58z" />
    <glyph glyph-name="greaterequal" unicode="&#x2265;" horiz-adv-x="532" 
d="M55 179l317 165l-317 164v76l423 -217v-45l-423 -217v74zM55 48h432v-58h-432v58z" />
    <glyph glyph-name="lozenge" unicode="&#x25ca;" horiz-adv-x="559" 
d="M438 327l-160 312l-161 -312l161 -313zM301 733l208 -406l-208 -406h-45l-208 406l208 406h45z" />
    <glyph glyph-name="zero.taboldstyle" unicode="&#xf643;" horiz-adv-x="551" 
d="M401 229q0 71 -9 118t-26.5 70.5t-37.5 32t-48 8.5t-48 -8.5t-38 -32t-27 -70.5t-9 -118q0 -70 9 -116.5t27 -69t38 -31t48 -8.5t48 8.5t37.5 31t26.5 69t9 116.5zM505 229q0 -119 -58.5 -178.5t-166.5 -59.5q-106 0 -165 60t-59 178q0 116 59.5 179t164.5 63
q108 0 166.5 -61t58.5 -181z" />
    <glyph glyph-name="one.taboldstyle" unicode="&#xf644;" horiz-adv-x="473" 
d="M202 90v273q0 40 -19 47t-66 -15l-3 12l160 64h15v-381q0 -27 6 -44t19.5 -24t23.5 -8.5t27 -1.5v-12h-245v12q19 0 30.5 2t25 9t20 24t6.5 43z" />
    <glyph glyph-name="two.taboldstyle" unicode="&#xf645;" horiz-adv-x="482" 
d="M395 131h12l-37 -131h-298l101 109q151 149 116 260q-17 51 -60 70t-80 -1q-31 -14 -32 -27q-1 -4 2 -4q18 4 32 -8q14 -11 15 -29.5t-10 -31.5q-12 -13 -30 -14.5t-31 9.5q-20 19 -15 43q9 37 65 72q18 12 53 18t74.5 3.5t72.5 -27t41 -68.5q8 -45 -11 -85.5t-48 -66
l-79.5 -68.5t-80.5 -75l154 3q49 0 74 49z" />
    <glyph glyph-name="three.taboldstyle" unicode="&#xf646;" horiz-adv-x="527" 
d="M83 -207q-23 25 -10 57q7 22 28.5 31t42.5 1q22 -8 30.5 -29t0.5 -43q-9 -20 -30 -28q-5 -1 4.5 -9.5t37 -16.5t63.5 -8q75 0 111.5 50.5t29.5 137.5q-2 26 -12 50.5t-30.5 50.5t-59.5 43.5t-91 21.5v14q55 9 91 41.5t47 71.5t0.5 80t-42.5 68q-35 25 -78 26t-81.5 -27
t-46.5 -73l-15 2q3 46 22.5 80t41 49.5t51 25t43 10.5t25.5 1q59 0 104 -37t60.5 -88.5t-9 -110t-91.5 -96.5q74 -18 116.5 -68t44.5 -108q2 -62 -20.5 -108.5t-60 -71t-75.5 -36.5t-74 -12q-117 0 -168 58z" />
    <glyph glyph-name="four.taboldstyle" unicode="&#xf647;" horiz-adv-x="568" 
d="M313 4v346l-204 -305q-17 -31 -13.5 -36t27.5 -5h190zM508 -48h-96v-96q0 -38 5 -61t17.5 -33t22.5 -12t30 -2v-13h-249v13q19 0 30 2.5t23 11.5t17 31t5 58v101h-271v14l335 500l35 -4v-458h96v-52z" />
    <glyph glyph-name="five.taboldstyle" unicode="&#xf648;" horiz-adv-x="553" 
d="M501 -10q6 -64 -14.5 -115t-59 -80.5t-85 -44.5t-96.5 -15q-45 0 -82.5 12.5t-54 23.5t-26.5 22q-24 26 -13 59q7 22 28.5 32.5t44.5 2.5q22 -7 32 -28.5t2 -44.5q-6 -19 -30 -30q-9 -3 9 -15q32 -21 90 -21q95 0 148.5 64.5t26.5 151.5q-21 72 -109.5 112.5t-239.5 8.5
l60 377h346l-27 -93h-319l-30 -195q177 41 283 -19.5t116 -164.5z" />
    <glyph glyph-name="six.taboldstyle" unicode="&#xf649;" horiz-adv-x="552" 
d="M406 219q0 105 -34 161t-81 56q-57 0 -98.5 -43.5t-41.5 -94.5q0 -149 31.5 -221.5t97.5 -72.5q126 0 126 215zM506 237q0 -116 -60.5 -181t-165.5 -65q-235 0 -235 324q0 167 76 282.5t193 115.5q100 0 132 -63q6 -12 4.5 -28t-10.5 -27q-14 -17 -36 -19.5t-38 11.5
q-17 13 -19.5 35t11.5 38q17 21 35 18l1 1q-4 11 -40 18q-11 2 -25 2q-83 5 -130.5 -78t-47.5 -281q20 61 65 96t103 35q41 0 74 -14.5t53.5 -38t34.5 -55t19.5 -63t5.5 -63.5z" />
    <glyph glyph-name="seven.taboldstyle" unicode="&#xf64a;" horiz-adv-x="550" 
d="M76 462h451l-51 -87q-95 -169 -131 -314t-36 -321h-105q7 180 59.5 308.5t198.5 326.5h-306q-34 0 -53 -13t-33 -45h-13z" />
    <glyph glyph-name="eight.taboldstyle" unicode="&#xf64b;" horiz-adv-x="547" 
d="M402 551q-1 82 -37.5 115.5t-90.5 33.5q-47 0 -81.5 -31t-34.5 -83q0 -64 37.5 -102.5t121.5 -72.5q31 10 58.5 49t26.5 91zM286 -9q-242 0 -242 168q0 62 49 114t120 75q-74 43 -104 87t-30 103q0 83 56 129t139 46q89 0 140.5 -42t51.5 -114q0 -46 -39.5 -93t-94.5 -61
q182 -91 182 -214q0 -101 -62.5 -149.5t-165.5 -48.5zM264 320l-13.5 6.5t-12.5 6.5l-12 7q-23 -11 -43 -27.5t-40.5 -57t-20.5 -92.5q0 -79 46 -119t118 -40q33 0 63 11.5t54 45.5t24 85q-1 53 -39.5 91t-123.5 83z" />
    <glyph glyph-name="nine.taboldstyle" unicode="&#xf64c;" horiz-adv-x="539" 
d="M138 240q0 -105 34 -160t81 -55q57 0 98.5 41.5t41.5 92.5q0 299 -129 299q-126 0 -126 -218zM38 223q0 121 60 184.5t166 63.5q235 0 235 -330q0 -194 -66.5 -300t-198.5 -106q-108 0 -142 72q-16 31 7 58q14 19 37 21.5t41 -12.5q18 -13 20.5 -36.5t-11.5 -41.5
q-17 -19 -38 -19q-7 0 7 -10q24 -17 64 -19q67 -3 103 27t53.5 110t17.5 231q-19 -59 -64 -92t-104 -33q-51 0 -89 21.5t-58.5 56.5t-30 73.5t-9.5 80.5z" />
    <glyph glyph-name="dollar.taboldstyle" unicode="&#xf653;" horiz-adv-x="538" 
d="M276 4q60 2 94.5 31t38.5 68.5t-15.5 81.5t-58.5 70l-59 38v-289zM248 436v264q-40 -1 -72 -24.5t-44.5 -58t6 -77.5t71.5 -78zM374 354q49 -32 80 -69.5t42 -74t6.5 -71.5t-24.5 -67q-13 -15 -22.5 -23.5t-33.5 -24t-61 -24t-85 -9.5v-121h-28v121q-62 3 -113.5 17
t-72.5 26l-20 13v192h8q9 -99 53.5 -161.5t144.5 -72.5v307l-79 51q-199 132 -109 272q2 3 6 8.5t20.5 18.5t36 23.5t53 19t72.5 8.5v123h28v-123q57 -3 107 -14.5t72 -22.5l22 -10v-169h-9q-21 191 -192 202v-281z" />
    <glyph glyph-name="cent.taboldstyle" unicode="&#xf654;" horiz-adv-x="504" 
d="M168 242q0 -87 37.5 -134.5t93.5 -59.5v409q-21 -3 -41 -14.5t-42 -34.5t-35 -66t-13 -100zM467 128l11 -5q-11 -45 -50.5 -85.5t-109.5 -46.5v-109h-19v109q-99 2 -161.5 67.5t-62.5 172.5q0 93 61 163.5t163 76.5v122h19v-122q103 0 137 -60q15 -26 1 -49
q-10 -16 -29 -21.5t-35 3.5q-17 10 -22 29t5 35t28 21q8 0 -5 9q-28 20 -80 20v-412q51 -3 93 23t56 59z" />
    <glyph glyph-name="dollar.oldstyle" unicode="&#xf724;" horiz-adv-x="538" 
d="M276 4q60 2 94.5 31t38.5 68.5t-15.5 81.5t-58.5 70l-59 38v-289zM248 436v264q-40 -1 -72 -24.5t-44.5 -58t6 -77.5t71.5 -78zM374 354q49 -32 80 -69.5t42 -74t6.5 -71.5t-24.5 -67q-13 -15 -22.5 -23.5t-33.5 -24t-61 -24t-85 -9.5v-121h-28v121q-62 3 -113.5 17
t-72.5 26l-20 13v192h8q9 -99 53.5 -161.5t144.5 -72.5v307l-79 51q-199 132 -109 272q2 3 6 8.5t20.5 18.5t36 23.5t53 19t72.5 8.5v123h28v-123q57 -3 107 -14.5t72 -22.5l22 -10v-169h-9q-21 191 -192 202v-281z" />
    <glyph glyph-name="zero.oldstyle" unicode="&#xf730;" horiz-adv-x="551" 
d="M401 229q0 71 -9 118t-26.5 70.5t-37.5 32t-48 8.5t-48 -8.5t-38 -32t-27 -70.5t-9 -118q0 -70 9 -116.5t27 -69t38 -31t48 -8.5t48 8.5t37.5 31t26.5 69t9 116.5zM505 229q0 -119 -58.5 -178.5t-166.5 -59.5q-106 0 -165 60t-59 178q0 116 59.5 179t164.5 63
q108 0 166.5 -61t58.5 -181z" />
    <glyph glyph-name="one.oldstyle" unicode="&#xf731;" horiz-adv-x="473" 
d="M202 90v273q0 40 -19 47t-66 -15l-3 12l160 64h15v-381q0 -27 6 -44t19.5 -24t23.5 -8.5t27 -1.5v-12h-245v12q19 0 30.5 2t25 9t20 24t6.5 43z" />
    <glyph glyph-name="two.oldstyle" unicode="&#xf732;" horiz-adv-x="482" 
d="M395 131h12l-37 -131h-298l101 109q151 149 116 260q-17 51 -60 70t-80 -1q-31 -14 -32 -27q-1 -4 2 -4q18 4 32 -8q14 -11 15 -29.5t-10 -31.5q-12 -13 -30 -14.5t-31 9.5q-20 19 -15 43q9 37 65 72q18 12 53 18t74.5 3.5t72.5 -27t41 -68.5q8 -45 -11 -85.5t-48 -66
l-79.5 -68.5t-80.5 -75l154 3q49 0 74 49z" />
    <glyph glyph-name="three.oldstyle" unicode="&#xf733;" horiz-adv-x="527" 
d="M83 -207q-23 25 -10 57q7 22 28.5 31t42.5 1q22 -8 30.5 -29t0.5 -43q-9 -20 -30 -28q-5 -1 4.5 -9.5t37 -16.5t63.5 -8q75 0 111.5 50.5t29.5 137.5q-2 26 -12 50.5t-30.5 50.5t-59.5 43.5t-91 21.5v14q55 9 91 41.5t47 71.5t0.5 80t-42.5 68q-35 25 -78 26t-81.5 -27
t-46.5 -73l-15 2q3 46 22.5 80t41 49.5t51 25t43 10.5t25.5 1q59 0 104 -37t60.5 -88.5t-9 -110t-91.5 -96.5q74 -18 116.5 -68t44.5 -108q2 -62 -20.5 -108.5t-60 -71t-75.5 -36.5t-74 -12q-117 0 -168 58z" />
    <glyph glyph-name="four.oldstyle" unicode="&#xf734;" horiz-adv-x="568" 
d="M313 4v346l-204 -305q-17 -31 -13.5 -36t27.5 -5h190zM508 -48h-96v-96q0 -38 5 -61t17.5 -33t22.5 -12t30 -2v-13h-249v13q19 0 30 2.5t23 11.5t17 31t5 58v101h-271v14l335 500l35 -4v-458h96v-52z" />
    <glyph glyph-name="five.oldstyle" unicode="&#xf735;" horiz-adv-x="553" 
d="M501 -10q6 -64 -14.5 -115t-59 -80.5t-85 -44.5t-96.5 -15q-45 0 -82.5 12.5t-54 23.5t-26.5 22q-24 26 -13 59q7 22 28.5 32.5t44.5 2.5q22 -7 32 -28.5t2 -44.5q-6 -19 -30 -30q-9 -3 9 -15q32 -21 90 -21q95 0 148.5 64.5t26.5 151.5q-21 72 -109.5 112.5t-239.5 8.5
l60 377h346l-27 -93h-319l-30 -195q177 41 283 -19.5t116 -164.5z" />
    <glyph glyph-name="six.oldstyle" unicode="&#xf736;" horiz-adv-x="552" 
d="M406 219q0 105 -34 161t-81 56q-57 0 -98.5 -43.5t-41.5 -94.5q0 -149 31.5 -221.5t97.5 -72.5q126 0 126 215zM506 237q0 -116 -60.5 -181t-165.5 -65q-235 0 -235 324q0 167 76 282.5t193 115.5q100 0 132 -63q6 -12 4.5 -28t-10.5 -27q-14 -17 -36 -19.5t-38 11.5
q-17 13 -19.5 35t11.5 38q17 21 35 18l1 1q-4 11 -40 18q-11 2 -25 2q-83 5 -130.5 -78t-47.5 -281q20 61 65 96t103 35q41 0 74 -14.5t53.5 -38t34.5 -55t19.5 -63t5.5 -63.5z" />
    <glyph glyph-name="seven.oldstyle" unicode="&#xf737;" horiz-adv-x="550" 
d="M76 462h451l-51 -87q-95 -169 -131 -314t-36 -321h-105q7 180 59.5 308.5t198.5 326.5h-306q-34 0 -53 -13t-33 -45h-13z" />
    <glyph glyph-name="eight.oldstyle" unicode="&#xf738;" horiz-adv-x="547" 
d="M402 551q-1 82 -37.5 115.5t-90.5 33.5q-47 0 -81.5 -31t-34.5 -83q0 -64 37.5 -102.5t121.5 -72.5q31 10 58.5 49t26.5 91zM286 -9q-242 0 -242 168q0 62 49 114t120 75q-74 43 -104 87t-30 103q0 83 56 129t139 46q89 0 140.5 -42t51.5 -114q0 -46 -39.5 -93t-94.5 -61
q182 -91 182 -214q0 -101 -62.5 -149.5t-165.5 -48.5zM264 320l-13.5 6.5t-12.5 6.5l-12 7q-23 -11 -43 -27.5t-40.5 -57t-20.5 -92.5q0 -79 46 -119t118 -40q33 0 63 11.5t54 45.5t24 85q-1 53 -39.5 91t-123.5 83z" />
    <glyph glyph-name="nine.oldstyle" unicode="&#xf739;" horiz-adv-x="539" 
d="M138 240q0 -105 34 -160t81 -55q57 0 98.5 41.5t41.5 92.5q0 299 -129 299q-126 0 -126 -218zM38 223q0 121 60 184.5t166 63.5q235 0 235 -330q0 -194 -66.5 -300t-198.5 -106q-108 0 -142 72q-16 31 7 58q14 19 37 21.5t41 -12.5q18 -13 20.5 -36.5t-11.5 -41.5
q-17 -19 -38 -19q-7 0 7 -10q24 -17 64 -19q67 -3 103 27t53.5 110t17.5 231q-19 -59 -64 -92t-104 -33q-51 0 -89 21.5t-58.5 56.5t-30 73.5t-9.5 80.5z" />
    <glyph glyph-name="cent.oldstyle" unicode="&#xf7a2;" horiz-adv-x="504" 
d="M168 242q0 -87 37.5 -134.5t93.5 -59.5v409q-21 -3 -41 -14.5t-42 -34.5t-35 -66t-13 -100zM467 128l11 -5q-11 -45 -50.5 -85.5t-109.5 -46.5v-109h-19v109q-99 2 -161.5 67.5t-62.5 172.5q0 93 61 163.5t163 76.5v122h19v-122q103 0 137 -60q15 -26 1 -49
q-10 -16 -29 -21.5t-35 3.5q-17 10 -22 29t5 35t28 21q8 0 -5 9q-28 20 -80 20v-412q51 -3 93 23t56 59z" />
    <glyph glyph-name="fi" unicode="&#xfb01;" horiz-adv-x="524" 
d="M486 8v-8h-168v8q27 8 33 23t6 57v296q0 65 -50 65h-137v-364q0 -40 10.5 -56t37.5 -21v-8h-175v8q27 6 33.5 20.5t6.5 56.5v364h-64l-2 13h66v11q0 151 55.5 211.5t168.5 60.5q48 0 84.5 -21.5t44.5 -60.5t-8 -60q-13 -17 -35.5 -20t-38.5 10q-18 14 -20.5 35.5
t11.5 39.5q17 20 34 19q14 -1 6 13q-14 25 -59 31q-9 1 -19 1q-17 0 -31 -2.5t-35 -16t-35.5 -38t-25 -73.5t-10.5 -116v-24h138h137v-374q0 -43 7.5 -58t33.5 -22z" />
    <glyph glyph-name="fl" unicode="&#xfb02;" horiz-adv-x="519" 
d="M496 13v-13h-168v13q27 8 33 21t6 54v558q0 59 -69 70q-12 4 -26.5 2t-30 -6t-30 -20.5t-25.5 -41t-18 -68t-7 -100.5v-20h107l-2 -13h-105v-364q0 -40 10.5 -53.5t38.5 -19.5v-12h-176v12q27 6 33.5 19.5t6.5 53.5v364h-65l-1 13h66v40q0 124 45 183.5t124 59.5
q59 0 100 -25l112 26v-658q0 -42 7 -55t34 -20z" />
    <glyph glyph-name="NULL" horiz-adv-x="0" 
 />
    <glyph glyph-name="CR" horiz-adv-x="278" 
 />
    <glyph glyph-name="two.superior" horiz-adv-x="259" 
d="M201 445h13l-18 -66h-166l101 152q50 75 14 117q-23 27 -60 17q-35 -9 -42 -47l-13 1q1 25 10.5 42.5t22 25.5t24.5 12.5t21 4.5h8q34 0 56.5 -22t22.5 -53q0 -36 -52 -104l-71 -105h89q25 0 40 25z" />
    <glyph glyph-name="one.superior" horiz-adv-x="209" 
d="M131 430q0 -16 6 -25t12.5 -10.5t17.5 -1.5v-13h-117v13q12 0 19 2t13.5 10.5t6.5 24.5v199q0 36 -39 7l-8 12l73 57h16v-275z" />
    <glyph glyph-name="a.superior" horiz-adv-x="297" 
d="M154 582q-88 -20 -88 -65q0 -14 10 -27t32 -13q19 0 32.5 16t13.5 30v59zM238 491l11 -4q-2 -13 -16 -23.5t-34 -10.5q-5 0 -12.5 1t-20 11t-12.5 27q-4 -18 -25 -28.5t-49 -10.5h-6.5t-14.5 3t-18 8t-14.5 16t-6.5 26q0 37 28.5 53t105.5 36v29q0 41 -19.5 58t-50.5 3
q-20 -11 -20 -17q10 0 17 -9q12 -19 -6 -34q-7 -6 -17 -4.5t-16 9.5q-9 10 -3 25q11 24 40 39q9 4 21.5 6.5t20.5 3.5h8q40 0 56 -27t16 -78v-89q0 -4 0.5 -9.5t6.5 -14t16 -8.5q11 -1 14 13z" />
    <glyph glyph-name="three.superior" horiz-adv-x="263" 
d="M223 474q1 -53 -32.5 -77t-73.5 -24q-49 0 -76 27q-13 11 -5 26q4 10 13 14.5t19 0.5t14.5 -13.5t0.5 -19.5q-5 -10 -12 -12q-4 -1 4 -5q14 -6 42 -6q33 0 50 20.5t13 57.5q-7 67 -86 72v13q33 5 50.5 26t15 45.5t-22.5 41.5q-22 19 -52 8.5t-36 -40.5l-14 1
q1 21 10.5 36t20 22t24.5 11t20 4.5t11 0.5q36 0 59.5 -27.5t17 -64t-46.5 -59.5q34 -8 52.5 -30t19.5 -49z" />
    <glyph glyph-name="o.superior" horiz-adv-x="314" 
d="M140 467q15 0 25 3t21 13t16.5 33.5t5.5 60.5q0 38 -6 62.5t-17 35t-21 14t-24 3.5t-24 -3t-21 -13.5t-17 -35.5t-6 -63q0 -37 6 -61t17 -33.5t20.5 -12.5t24.5 -3zM140 705q112 0 112 -128q0 -123 -112 -123t-112 123q0 128 112 128z" />
    </font>
</defs>
</svg>
