<?xml version="1.0" standalone="no"?>
<!DOCTYPE svg PUBLIC "-//W3C//DTD SVG 1.1//EN" "http://www.w3.org/Graphics/SVG/1.1/DTD/svg11.dtd" >
<svg>
<metadata>
Created by FontForge 20090622 at Fri Dec 14 11:27:33 2018
 By deploy user
Created by Fabian De Smet
</metadata>
<defs>
<font id="Butler-Bold" horiz-adv-x="278" >
  <font-face 
    font-family="Butler"
    font-weight="700"
    font-stretch="normal"
    units-per-em="1000"
    panose-1="2 7 8 3 8 7 6 2 3 3"
    ascent="735"
    descent="-265"
    x-height="462"
    cap-height="704"
    bbox="-146 -319 1107 986"
    underline-thickness="50"
    underline-position="-50"
    unicode-range="U+0020-U+FB02"
  />
<missing-glyph horiz-adv-x="507" 
d="M-1 704h508v-704h-508v704zM223 352l-174 268v-535zM86 654l167 -256l167 256h-334zM253 307l-167 -257h334zM283 352l174 -267v535z" />
    <glyph glyph-name="f_i" unicode="fi" horiz-adv-x="591" 
d="M512 113q0 -48 8 -73.5t33 -31.5v-8h-205v8q26 7 32.5 32t6.5 73v250q0 31 -12.5 56.5t-37.5 25.5h-129v-332q0 -47 8.5 -72.5t32.5 -32.5v-8h-205v8q26 8 33 33t7 72v332h-64l-2 17h66v23q0 139 65.5 199.5t201.5 60.5q51 0 90.5 -20t52.5 -43q24 -44 5 -83
q-13 -27 -41.5 -36.5t-55.5 3.5q-27 14 -36.5 42t3.5 55q14 27 42 35q15 4 0 15q-21 15 -60 15q-14 0 -26 -1.5t-35.5 -13t-39.5 -32.5t-29 -65t-13 -105v-49h130h174v-349z" />
    <glyph glyph-name="f_l" unicode="fl" horiz-adv-x="573" 
d="M520 113q0 -46 8 -68t33 -28v-17h-205v17q26 7 32.5 28.5t6.5 67.5v519q0 49 -35 64q-13 5 -25.5 8t-32.5 3.5t-37 -10.5t-32.5 -31.5t-24.5 -62.5t-9 -101v-40h107l-3 -17h-104v-332q0 -46 8 -67.5t33 -28.5v-17h-206v17q26 8 33 29.5t7 66.5v332h-64l-2 17h66v80
q0 97 50.5 150.5t124.5 52.5q59 0 111 -32l160 33v-633z" />
    <glyph glyph-name=".notdef" horiz-adv-x="507" 
d="M-1 704h508v-704h-508v704zM223 352l-174 268v-535zM86 654l167 -256l167 256h-334zM253 307l-167 -257h334zM283 352l174 -267v535z" />
    <glyph glyph-name=".null" horiz-adv-x="0" 
 />
    <glyph glyph-name="nonmarkingreturn" horiz-adv-x="333" 
 />
    <glyph glyph-name="space" unicode=" " horiz-adv-x="265" 
 />
    <glyph glyph-name="exclam" unicode="!" horiz-adv-x="334" 
d="M199 224h-65l-32 521h132zM242 67q0 31 -22 53.5t-54 22.5q-31 0 -53 -22.5t-22 -53.5t22 -53.5t53 -22.5q32 0 54 22.5t22 53.5z" />
    <glyph glyph-name="quotedbl" unicode="&#x22;" horiz-adv-x="532" 
d="M136 377l-35 327h131l-33 -327h-63zM343 377l-35 327h132l-34 -327h-63z" />
    <glyph glyph-name="numbersign" unicode="#" horiz-adv-x="714" 
d="M667 463h-132l-35 -149h104v-89h-124l-52 -225h-91l52 225h-136l-52 -225h-91l52 225h-118v89h139l34 149h-109v88h129l46 195h91l-45 -195h135l46 195h91l-46 -195h112v-88zM444 463h-136l-34 -149h135z" />
    <glyph glyph-name="dollar" unicode="$" horiz-adv-x="594" 
d="M296 8q56 0 87 26t32.5 62.5t-19 77t-58.5 68.5l-42 26v-260zM279 467v229q-40 0 -66 -22t-32 -54t14.5 -71.5t66.5 -69.5zM416 377q67 -44 104 -93t41.5 -103t-33.5 -108q-34 -42 -84 -62t-148 -20v-122h-17v122q-73 4 -131 19.5t-80 29.5l-22 13v192h8
q75 -209 225 -236v270l-95 60q-229 144 -112 298q2 3 6 8t21 18.5t38.5 23.5t59.5 18t82 8v122h17v-122q71 -1 131 -13t85 -24l24 -11v-168h-8q-7 20 -17 40t-30.5 49t-44.5 51t-61 39t-79 20v-240z" />
    <glyph glyph-name="percent" unicode="%" horiz-adv-x="1011" 
d="M250 0l456 704h65l-456 -704h-65zM280 679q138 0 138 -182q0 -83 -31 -129.5t-107 -46.5q-77 0 -108 46.5t-31 129.5q0 182 139 182zM280 338q33 0 41.5 27.5t8.5 131.5q0 103 -9 134t-41 31q-33 0 -42 -30.5t-9 -134.5q0 -102 9 -130.5t42 -28.5zM741 383
q138 0 138 -182q0 -83 -31 -129.5t-107 -46.5q-77 0 -108 46.5t-31 129.5q0 182 139 182zM741 42q33 0 41.5 27.5t8.5 131.5q0 103 -9 134t-41 31q-33 0 -42 -30.5t-9 -134.5q0 -102 9 -130.5t42 -28.5z" />
    <glyph glyph-name="ampersand" unicode="&#x26;" horiz-adv-x="834" 
d="M450 698q16 -19 25.5 -45t11.5 -62t-23.5 -78.5t-77.5 -81.5l117 -176q43 83 111 99q46 10 73 -12q21 -17 23 -44t-16 -48q-17 -20 -44 -22.5t-48 15.5q-20 17 -22 43q0 16 -22 6q-29 -13 -46 -50l78 -115q13 -20 34.5 -31t36.5 -12l15 -1q74 0 88 48h18
q0 -62 -37.5 -97.5t-91.5 -41.5q-5 0 -12.5 -0.5t-29 0.5t-40 5.5t-39.5 15.5t-32 28l-53 78q-16 -43 -59 -76t-93.5 -46.5t-105 3.5t-88.5 68q-103 154 119 287l45 27l-57 85q-42 65 -39 122.5t41 99t94 51.5q96 17 146 -42zM226 115q23 -30 63 -42t81.5 3.5t63.5 59.5
l-159 231l-44 -29q-28 -21 -41.5 -55t-5.5 -79t42 -89zM375 447q60 41 80.5 90t11 84.5t-32.5 63.5q-21 22 -47.5 30t-50.5 0q-37 -13 -51 -59t18 -101z" />
    <glyph glyph-name="quotesingle" unicode="'" 
d="M109 376l-34 328h131l-34 -328h-63z" />
    <glyph glyph-name="parenleft" unicode="(" horiz-adv-x="333" 
d="M318 745l14 -13q-37 -44 -63.5 -100.5t-39 -103t-19 -108t-7.5 -92t-1 -77.5q0 -61 2.5 -102.5t13 -112.5t39 -129.5t73.5 -99.5l-14 -13q-49 28 -87.5 63t-63 67.5t-42 74t-26 71t-13 70.5t-5 61t-0.5 53t0.5 53t5 61t13 72t26 75t42.5 79.5t64 76t88 74.5z" />
    <glyph glyph-name="parenright" unicode=")" horiz-adv-x="333" 
d="M251 255q0 -33 -0.5 -53t-5 -61t-13 -70.5t-26 -71t-42 -74t-63 -67.5t-87.5 -63l-14 13q45 41 73.5 99.5t39 129.5t13 112.5t2.5 102.5q0 47 -1 77.5t-7.5 92t-19 108t-39 103t-63.5 100.5l14 13q49 -34 88 -74.5t64 -76t42.5 -79.5t26 -75t13 -72t5 -61t0.5 -53z" />
    <glyph glyph-name="asterisk" unicode="*" horiz-adv-x="556" 
d="M487 513l-180 -24l132 -125l-85 -62l-78 165l-79 -165l-84 62l132 125l-181 24l33 99l159 -87l-33 179h105l-33 -179l160 87z" />
    <glyph glyph-name="plus" unicode="+" horiz-adv-x="715" 
d="M657 356v-93h-254v-263h-93v263h-254v93h254v263h93v-263h254z" />
    <glyph glyph-name="comma" unicode="," horiz-adv-x="272" 
d="M180 -53q-32 -51 -84 -79l-11 14q48 37 59 86q5 24 -5 25q-36 4 -56 24q-25 23 -25 57.5t24 59.5q24 24 58.5 24t58.5 -24q23 -23 23.5 -60t-11.5 -68t-31 -59z" />
    <glyph glyph-name="hyphen" unicode="-" horiz-adv-x="444" 
d="M379 208h-315v93h315v-93z" />
    <glyph glyph-name="period" unicode="." horiz-adv-x="296" 
d="M232 79q0 -35 -24.5 -59.5t-59.5 -24.5t-60 24.5t-25 59.5t25 60t60 25t59.5 -25t24.5 -60z" />
    <glyph glyph-name="slash" unicode="/" horiz-adv-x="430" 
d="M413 725l-308 -746h-91l308 746h91z" />
    <glyph glyph-name="zero" unicode="0" horiz-adv-x="630" 
d="M314 713q279 0 279 -367q0 -79 -13 -140t-43.5 -111t-86.5 -77t-136 -27t-136.5 27t-87 77t-43.5 111t-13 140q0 367 280 367zM314 8q47 0 72 27.5t37 100t12 210.5q0 137 -12.5 213.5t-38 106.5t-70.5 30q-69 0 -95.5 -73.5t-26.5 -276.5q0 -137 12.5 -210t38 -100.5
t71.5 -27.5z" />
    <glyph glyph-name="one" unicode="1" horiz-adv-x="424" 
d="M284 95q0 -22 5.5 -37.5t13 -23.5t20 -12t21 -4.5t22.5 -0.5v-17h-301v17q20 0 33 2t29 9t24.5 24t8.5 43v433q0 40 -23 46t-47 -8l-23 -14l-10 16l195 145h32v-618z" />
    <glyph glyph-name="two" unicode="2" horiz-adv-x="493" 
d="M445 185h17l-51 -185h-372l228 332q70 121 21 202q-34 56 -100 62q-71 7 -114 -48q-10 -12 -17 -27l-16 4q6 52 28.5 91t50 56.5t53.5 28t44 11.5l18 1q74 0 122.5 -49t48.5 -118q0 -46 -28 -95.5t-93 -132.5l-56.5 -75.5l-58.5 -80.5l-23 -34h207q60 0 91 57z" />
    <glyph glyph-name="three" unicode="3" horiz-adv-x="528" 
d="M477 232q3 -51 -10.5 -93.5t-37.5 -69t-56.5 -45t-65 -26t-64.5 -7.5q-113 0 -180 50q-16 11 -23 33t-2 44q7 31 34 48.5t58 9.5q32 -8 48.5 -35t9.5 -58q-7 -29 -32 -44q-9 -3 4 -13q22 -18 82 -18q70 0 96 50.5t19 122.5q-2 18 -10.5 39t-27.5 49t-58.5 49.5
t-93.5 28.5v17q59 18 92 50.5t37 66.5t-7 64t-33 48q-23 19 -58.5 22.5t-71 -14t-53.5 -54.5l-16 4q6 45 26.5 78.5t45.5 49t49.5 24t40.5 9.5l16 1q42 0 80.5 -16.5t63.5 -47t34 -68.5t-11 -86t-68 -95q65 -33 102.5 -77.5t40.5 -90.5z" />
    <glyph glyph-name="four" unicode="4" horiz-adv-x="547" 
d="M510 196h-104v-51q0 -45 6.5 -73t21 -39t26 -13.5t31.5 -2.5v-17h-315v17q20 0 31.5 3t26 13.5t21 37t6.5 69.5v56h-232v17l330 500l47 -9v-438h104v-70zM261 266v265l-140 -212q-13 -18 -16.5 -30t2 -16.5t11.5 -5.5t16 -1h127z" />
    <glyph glyph-name="five" unicode="5" horiz-adv-x="535" 
d="M92 436q92 16 159 6t112 -30.5t72 -55t38 -68t11 -68.5q0 -109 -72 -169t-181 -60q-98 0 -156 47q-15 13 -22 34.5t-3 43.5q8 31 35.5 47.5t58.5 9.5t47.5 -34.5t9.5 -58.5q-6 -30 -32 -45q-14 -8 2 -18q17 -9 60 -9q49 0 84 16.5t50 41.5t20.5 55t-4.5 57
q-4 13 -11.5 27t-24 34.5t-40 35t-60 28.5t-84 15.5t-110.5 -4.5l74 390h346l-43 -131h-308z" />
    <glyph glyph-name="six" unicode="6" horiz-adv-x="584" 
d="M358 438q98 0 142.5 -63t44.5 -157q0 -111 -69 -169t-179 -58q-124 0 -189.5 87t-65.5 240q0 178 90 286.5t214 108.5q53 0 88.5 -22t48.5 -44q10 -15 10 -37.5t-12 -40.5q-16 -27 -46.5 -34t-57.5 10q-26 16 -33 47t10 57q17 27 44 31q7 1 -4 7q-15 9 -48 9
q-145 0 -146 -340q35 82 158 82zM297 8q58 0 79.5 38.5t21.5 151.5q0 96 -25.5 147t-67.5 51q-31 0 -62.5 -18.5t-42.5 -60.5q2 -170 22.5 -239.5t74.5 -69.5z" />
    <glyph glyph-name="seven" unicode="7" horiz-adv-x="556" 
d="M70 704h451l-75 -129q-123 -219 -123 -575h-142q0 135 51 264.5t197 310.5h-266q-28 0 -56.5 -15t-43.5 -43h-17z" />
    <glyph glyph-name="eight" unicode="8" horiz-adv-x="565" 
d="M343 426q51 24 51 128q0 77 -34.5 109.5t-83.5 32.5q-42 0 -68 -28.5t-26 -81.5q0 -97 161 -160zM401 131q0 29 -13.5 55t-38.5 47t-46 34.5t-50 28.5l-38 21q-25 -13 -47 -52.5t-22 -106.5q0 -66 37.5 -108t106.5 -42q50 0 80.5 31.5t30.5 91.5zM531 202
q0 -110 -65.5 -160.5t-175.5 -50.5q-254 0 -254 161q0 61 50.5 113.5t105.5 64.5q-65 41 -98 92t-33 101q0 92 60.5 141t154.5 49q93 0 151 -38.5t58 -107.5q0 -50 -31.5 -94.5t-90.5 -57.5q72 -35 120 -93.5t48 -119.5z" />
    <glyph glyph-name="nine" unicode="9" horiz-adv-x="577" 
d="M224 267q-98 0 -142.5 63t-44.5 157q0 111 69 168.5t179 57.5q124 0 189.5 -87t65.5 -239q0 -187 -77.5 -291.5t-226.5 -104.5q-105 0 -145 67q-10 15 -10 37.5t12 40.5q16 27 46.5 34t57.5 -10q26 -16 33 -47t-10 -57q-17 -27 -45 -31q-7 -1 7 -7q21 -10 54 -10
q92 0 118.5 66.5t27.5 276.5q-39 -84 -158 -84zM285 696q-58 0 -79.5 -38t-21.5 -151q0 -96 25.5 -147t67.5 -51q30 0 62 21t43 63q-2 114 -10 176.5t-29 94.5t-58 32z" />
    <glyph glyph-name="colon" unicode=":" 
d="M226 79q0 -36 -25.5 -61t-60.5 -25q-36 0 -61 25t-25 61t25 61t61 25q35 0 60.5 -25t25.5 -61zM226 385q0 -35 -25.5 -60.5t-60.5 -25.5q-36 0 -61 25.5t-25 60.5t25 60.5t61 25.5q35 0 60.5 -25.5t25.5 -60.5z" />
    <glyph glyph-name="semicolon" unicode=";" 
d="M226 385q0 -36 -25 -61t-61 -25t-61 25t-25 61q0 35 25 60.5t61 25.5t61 -25.5t25 -60.5zM184 -53q18 27 29.5 58.5t10 68.5t-24.5 60q-24 24 -58.5 24t-58.5 -24q-24 -25 -24 -59.5t25 -57.5q20 -20 56 -24q12 -2 4 -31q-12 -49 -60 -77l11 -14q64 35 90 76z" />
    <glyph glyph-name="less" unicode="&#x3c;" horiz-adv-x="600" 
d="M195 266l358 -189v-93l-507 260v43l507 260v-94z" />
    <glyph glyph-name="equal" unicode="=" horiz-adv-x="613" 
d="M567 339h-511v80h511v-80zM567 114h-511v80h511v-80z" />
    <glyph glyph-name="greater" unicode="&#x3e;" horiz-adv-x="600" 
d="M47 77l358 189l-358 187v94l507 -260v-43l-507 -260v93z" />
    <glyph glyph-name="question" unicode="?" horiz-adv-x="593" 
d="M279 164q35 0 60 -24.5t25 -59.5t-25 -60t-60 -25t-59.5 25t-24.5 60t24.5 59.5t59.5 24.5zM506 577q2 -52 -11.5 -93.5t-37 -66.5t-47 -39.5t-48.5 -20.5q-41 -11 -63.5 -42.5t-18.5 -75.5l-26 -4q-16 102 53 159q36 30 48.5 70t5.5 109q-6 82 -63 114.5t-123 6.5
q-28 -12 -25 -32q1 -9 8 -10q25 -4 42 -27q16 -23 11 -50.5t-27 -44.5q-23 -16 -50.5 -10t-44.5 29q-19 26 -7 69q5 23 26 49.5t55 41.5q58 25 119 27t109 -16t80 -55.5t35 -87.5z" />
    <glyph glyph-name="at" unicode="@" horiz-adv-x="892" 
d="M528 624q139 -6 232 -106t79 -272q-5 -66 -28 -115t-51.5 -75t-66 -41.5t-65 -19.5t-56.5 -4q-33 0 -50 20.5t-13 44.5q-9 -11 -22.5 -23.5t-47 -27t-70.5 -14.5q-62 0 -86 58t-15 123q4 25 11.5 51t25 59t40.5 58t60.5 42.5t83.5 17.5q9 0 18 -1.5t16 -4t13 -5.5
t10.5 -6.5t8 -6.5t6.5 -6.5t4.5 -6t2.5 -3.5l1 -2l5 26l98 -2l-56 -299q-6 -15 0 -31.5t26 -16.5q42 0 90.5 57.5t48.5 158.5q0 287 -243 305q-83 6 -153 -23t-115.5 -81.5t-73 -114.5t-36.5 -127q-1 -7 -2.5 -19.5t-1.5 -49t5.5 -70.5t24.5 -76t48.5 -73.5t83 -56
t124.5 -30.5q52 -3 102 10.5t74 28.5l23 16l10 -15l-8.5 -8.5t-26.5 -19t-45.5 -23.5t-66 -18.5t-87.5 -8.5q-49 0 -97 9t-101.5 35.5t-93.5 67.5t-65 112t-22 163q3 100 46.5 186t112.5 141.5t155.5 85.5t175.5 27zM514 87q0 2 12.5 61.5l20.5 99.5q2 13 3.5 28t1.5 41
t-11 43t-31 17q-45 0 -79.5 -49t-48.5 -117q-15 -75 7.5 -115t58.5 -43q19 -2 35.5 6.5t23.5 18.5z" />
    <glyph glyph-name="A" unicode="A" horiz-adv-x="708" 
d="M610 90q7 -17 13.5 -29.5t13.5 -20l11.5 -12t12.5 -7t11 -3t11.5 -1t10.5 -0.5v-17h-286v17q22 0 32.5 11t10.5 26.5t-3.5 31.5t-8.5 27l-5 11l-30 73h-237q-1 -4 -3 -10.5t-5.5 -26t-4 -37t4.5 -38.5t16 -36t33.5 -24.5t54.5 -7.5v-17h-246v17q12 1 16.5 2t18.5 12
t27 33.5t36 69t51 114.5l173 456h17zM170 214h228l-119 292z" />
    <glyph glyph-name="B" unicode="B" horiz-adv-x="642" 
d="M370 361q26 0 49 -2t58 -13t59 -29t42 -53.5t18 -84.5q0 -37 -9 -65t-22.5 -47t-39 -32t-47.5 -20t-60.5 -10.5t-65 -4t-72.5 -0.5h-243v9q58 0 58 128v429q0 54 -14 92t-44 38v8h243h13h45t41.5 -1.5t40.5 -4.5t35 -8.5t32 -14t25 -21.5t20.5 -30t11.5 -39.5t5 -50.5
q0 -52 -24.5 -89.5t-58.5 -53.5t-58.5 -23t-37.5 -7zM280 687h-39v-322h39q130 0 130 171q0 52 -12.5 85.5t-36 46.5t-40 16t-41.5 3zM280 17q26 0 37.5 0.5t33.5 3.5t32.5 8.5t25.5 17.5t22 30t12.5 45t5.5 62q0 46 -12 78t-27.5 48.5t-41.5 25.5t-44 10.5t-44 1.5h-39
v-331h39z" />
    <glyph glyph-name="C" unicode="C" horiz-adv-x="687" 
d="M615 210h17l14 -157q-53 -35 -113.5 -48.5t-145.5 -13.5q-157 0 -252 103.5t-95 257.5t95 257.5t252 103.5q184 0 259 -61l-14 -157h-17q-44 106 -95 153.5t-133 47.5q-59 0 -93.5 -28.5t-54 -105t-19.5 -210.5t20 -211t55 -105t92 -28q86 0 146.5 57.5t81.5 144.5z" />
    <glyph glyph-name="D" unicode="D" horiz-adv-x="768" 
d="M301 704q65 0 120.5 -8.5t112.5 -32.5t96.5 -62t64.5 -102.5t25 -149.5q0 -349 -419 -349h-264v17q32 0 53.5 34.5t21.5 85.5v429q0 48 -21.5 84.5t-53.5 36.5v17h264zM301 17q30 0 53 3.5t53.5 13.5t53 33t42.5 57.5t31 92t11 132.5t-11 133t-31 93.5t-42.5 59t-53 34.5
t-54 14.5t-52.5 3.5h-44v-670h44z" />
    <glyph glyph-name="E" unicode="E" horiz-adv-x="653" 
d="M573 218h17v-218h-563v17q58 0 58 120v429q0 121 -58 121v17h550v-190h-17q-6 48 -39 84t-75 52t-83 25.5t-69 10.5l-28 1h-36v-323h36q6 0 16.5 0.5t37 6t47.5 15.5t39.5 31.5t21.5 50.5h17v-225h-17q-3 29 -20.5 50.5t-41 31.5t-46.5 15.5t-38 5.5l-16 1h-36v-330h36
q6 0 15.5 0.5t38 4.5t54.5 11t60 22t60 35t48 53.5t31 74.5z" />
    <glyph glyph-name="F" unicode="F" horiz-adv-x="602" 
d="M25 704h561v-190h-17q-10 51 -45 87.5t-78 52.5t-85 24.5t-70 8.5h-28h-35v-322h35q6 0 16.5 0.5t38 5.5t49.5 14.5t42.5 31t25.5 51.5h17v-225h-17q-5 30 -24.5 51.5t-44 31t-48 15t-39.5 5.5h-16h-35v-209q0 -40 7 -66t20.5 -37t26 -14t32.5 -3v-17h-289v17
q58 0 58 120v429q0 121 -58 121v17z" />
    <glyph glyph-name="G" unicode="G" horiz-adv-x="745" 
d="M438 280h282v-17q-31 0 -44 -14t-19 -61.5t-6 -154.5q-109 -42 -261 -42q-158 0 -254.5 104t-96.5 257t96.5 257t254.5 104q175 0 255 -53l-7 -171h-34q-21 114 -71.5 160.5t-142.5 46.5q-60 0 -95 -28t-54 -104.5t-19 -211.5t19.5 -211.5t54.5 -104.5t94 -28
q87 0 110 20.5t23 93.5q0 66 -10.5 97t-25.5 37.5t-49 6.5v17z" />
    <glyph glyph-name="H" unicode="H" horiz-adv-x="658" 
d="M637 687q-16 -3 -25.5 -10.5t-13.5 -25t-4.5 -31t-0.5 -46.5v-13v-425v-28v-23.5t0.5 -18t2 -16t4.5 -11t8 -9.5t12 -6.5t17 -6.5v-17h-208v17q17 6 20.5 24t3.5 73v22v191h-242v-191v-27q0 -51 3.5 -68.5t20.5 -23.5v-17h-209v17q10 3 17 6.5t12 6.5t8.5 9.5t5 11t2 16
t0.5 18v24v27.5v425q0 80 -8 99q-9 22 -37 27v17h209v-17q-17 -5 -20.5 -25.5t-3.5 -74.5v-26v-214h242v214q0 89 -5 104q-5 17 -19 22v17h208v-17z" />
    <glyph glyph-name="I" unicode="I" horiz-adv-x="390" 
d="M39 704h315v-17q-35 0 -60 -22.5t-25 -66.5v-477q0 -48 25.5 -76t59.5 -28v-17h-315v17q35 0 60 28t25 76v477q0 44 -24.5 66.5t-60.5 22.5v17z" />
    <glyph glyph-name="J" unicode="J" horiz-adv-x="443" 
d="M86 704h318v-17q-37 0 -62 -23.5t-25 -68.5v-413q0 -303 -311 -349l-4 17q166 60 166 332v291q0 145 -10 176q-10 32 -46 37q-10 1 -26 1v17z" />
    <glyph glyph-name="K" unicode="K" horiz-adv-x="814" 
d="M34 704h302v-17q-86 0 -86 -89v-475q0 -50 21 -78t54 -28v-17h-291v17q32 0 51.5 28t19.5 78v475q0 89 -71 89v17zM660 82q49 -65 141 -65v-17h-158q-77 0 -115 31t-120 150l-101 139l138 167l33 44q80 118 10 148q-19 7 -49 8v17h330v-17q-26 0 -42 -2t-48.5 -16.5
t-65 -42.5t-84 -83t-113.5 -135z" />
    <glyph glyph-name="L" unicode="L" horiz-adv-x="667" 
d="M588 217h17v-217h-568v17q32 0 51.5 30.5t19.5 81.5v469q0 44 -22.5 66.5t-56.5 22.5v17h317v-17q-93 0 -93 -89v-581h36q6 0 15.5 0.5t37.5 4.5t54.5 10.5t59.5 21.5t58.5 35.5t46 53.5t27.5 74z" />
    <glyph glyph-name="M" unicode="M" horiz-adv-x="988" 
d="M884 121q0 -48 25.5 -76t60.5 -28v-17h-302v17q32 0 52 27t20 77v536l-266 -666h-17l-280 600v-338q0 -10 0.5 -25.5t8 -56.5t20 -72t40.5 -56.5t67 -25.5v-17h-303v17q42 0 73 24.5t45 59t22 69t9 58.5l1 25v365q-13 23 -28.5 38t-34.5 21t-25.5 7.5t-24.5 2.5v17h252
l241 -507l200 507h221v-17q-34 0 -55.5 -22t-21.5 -66v-478z" />
    <glyph glyph-name="N" unicode="N" horiz-adv-x="840" 
d="M520 704h303v-17q-42 0 -73 -24t-45 -59t-22 -70t-9 -60v-24v-450h-53l-437 549v-294q0 -10 0.5 -26t8 -57t20.5 -72.5t41 -57t67 -25.5v-17h-304v17q42 0 73 24.5t45 59.5t22 70t9 59l1 25v312l-39 49q-15 19 -29.5 32.5t-24 21t-21 11.5t-16 4.5t-15.5 1t-13 0.5v17
h245l403 -497v243q0 5 -0.5 13.5t-3 33.5t-7 47t-14.5 49.5t-24 47t-37 33t-51 13.5v17z" />
    <glyph glyph-name="O" unicode="O" horiz-adv-x="776" 
d="M386 713q159 0 252 -105.5t93 -260.5q0 -154 -92.5 -255t-252.5 -101t-252.5 101t-92.5 255q0 155 93 260.5t252 105.5zM386 8q62 0 97.5 27t55 101.5t19.5 210.5q0 135 -19 212t-55 107t-98 30t-98.5 -30t-56 -107t-19.5 -212t19.5 -210t55.5 -102t99 -27z" />
    <glyph glyph-name="P" unicode="P" horiz-adv-x="651" 
d="M278 300h-36v-163q0 -40 11.5 -66t32 -36.5t37 -14t37.5 -3.5v-17h-329v17q31 0 48.5 33.5t17.5 86.5v435q0 48 -20 81.5t-52 33.5v17h253q64 0 112.5 -5t93 -18t73 -35.5t45 -58.5t16.5 -85t-16.5 -85t-45 -58.5t-73 -35.5t-93 -18t-112.5 -5zM242 687v-370h36
q45 0 70.5 4.5t53 21.5t40 56t12.5 103q0 52 -9.5 87.5t-23.5 54.5t-39.5 29t-46.5 12t-57 2h-36z" />
    <glyph glyph-name="Q" unicode="Q" horiz-adv-x="771" 
d="M615 -116l-171 58q-7 3 -20 7t-52.5 9t-79 0.5t-95.5 -27.5t-106 -66l13 -13q1 1 7.5 6t9.5 7l10 6.5t12.5 6.5t14 4.5t16.5 2.5t18 -0.5t22 -4t24 -8.5l86 -36q90 -38 145.5 -54t106.5 -12t88 36l107 92l-12 13q-1 0 -7.5 -5t-10 -7t-11 -7t-13.5 -7t-15.5 -5.5
t-18.5 -4t-20 -0.5t-23 2.5t-25 6.5zM386 713q159 0 252 -105.5t93 -260.5q0 -154 -92.5 -255t-252.5 -101t-252.5 101t-92.5 255q0 155 93 260.5t252 105.5zM386 8q62 0 97.5 27t55 101.5t19.5 210.5q0 135 -19 212t-55 107t-98 30t-98.5 -30t-56 -107t-19.5 -212
t19.5 -210t55.5 -102t99 -27z" />
    <glyph glyph-name="R" unicode="R" horiz-adv-x="728" 
d="M604 115q9 -35 34 -58.5t45.5 -31t37.5 -8.5v-17h-92h-52.5t-39 3.5l-30 4.5t-21 12.5t-17 17l-13 28t-14 37t-15 51.5l-20.5 64q-15 46 -46 71.5t-55 28.5l-24 3h-47v-200q0 -49 20.5 -76.5t53.5 -27.5v-17h-291v17q33 0 52.5 27t19.5 77v477q0 89 -72 89v17h248
q66 0 112.5 -3.5t92 -15.5t73 -32.5t44.5 -55.5t17 -84q0 -87 -49.5 -128.5t-145.5 -52.5q56 6 108 -43.5t86 -173.5zM266 338q21 0 32 0.5t29 2t28 4.5t24 9t21.5 14.5t17 22t14 30.5t7.5 40t3 52q0 36 -5 64t-12 46.5t-22 31t-26.5 19t-34 9.5t-36 3.5t-40.5 0.5h-31v-349
h31z" />
    <glyph glyph-name="S" unicode="S" horiz-adv-x="616" 
d="M416 377q67 -44 104 -93t41.5 -103t-33.5 -108q-2 -3 -6 -8.5t-21 -20t-38 -25t-59.5 -19.5t-83.5 -9q-86 0 -154.5 15.5t-93.5 31.5l-26 15v192h17l12 -33t17 -39.5t25.5 -47.5t33.5 -42t44.5 -39.5t55 -24.5t69.5 -11q39 0 64.5 24.5t31 59t-14 76.5t-63.5 74l-154 97
q-229 144 -112 298q2 3 6 8t21 18.5t38.5 23.5t59.5 18t82 8q76 0 140.5 -12t90.5 -24l26 -12v-168h-17q-8 22 -17 41.5t-29.5 50.5t-45 53t-64 38t-84.5 16q-40 0 -66 -22t-32 -54t14.5 -71.5t66.5 -69.5z" />
    <glyph glyph-name="T" unicode="T" horiz-adv-x="698" 
d="M19 704h658v-201h-17q-2 50 -25.5 87.5t-56 55t-64 28t-53.5 12.5l-22 1h-19v-566q0 -48 25.5 -76t59.5 -28v-17h-315v17q34 0 59.5 28t25.5 76v566h-19q-9 0 -23 -1.5t-51 -12t-66 -28t-53.5 -55t-26.5 -87.5h-17v201z" />
    <glyph glyph-name="U" unicode="U" horiz-adv-x="752" 
d="M736 704v-17q-42 0 -73 -15t-45 -37.5t-22 -44.5t-8 -38l-1 -15v-297q0 -61 -17.5 -107.5t-43.5 -72.5t-61.5 -42.5t-65 -21.5t-59.5 -5q-106 0 -177 68.5t-71 186.5v353q0 44 -22.5 66t-57.5 22v17h318v-17q-93 0 -93 -88v-360q0 -86 47.5 -137t120.5 -51q63 0 114 50.5
t51 138.5v297q0 6 -0.5 16t-8 36t-20 46t-40.5 36t-67 16v17h302z" />
    <glyph glyph-name="V" unicode="V" horiz-adv-x="775" 
d="M471 704h283v-17q-18 0 -28.5 -1.5t-30 -14t-36.5 -36t-43 -71t-55 -116.5l-180 -448h-17l-256 606q-12 28 -24.5 46t-26.5 25t-22.5 8.5t-21.5 1.5v17h318v-17q-36 0 -47 -29t-4 -58l7 -29l153 -381l105 263q2 5 5 13.5t9 32.5t9 46.5t1 49.5t-11 46t-31 32.5t-56 13.5
v17z" />
    <glyph glyph-name="W" unicode="W" horiz-adv-x="1122" 
d="M812 704h295v-17q-20 0 -39 -8t-45 -30.5t-56.5 -73t-63.5 -127.5l-173 -448h-17l-179 432l-160 -432h-17l-251 606q-11 29 -23.5 46.5t-25.5 24.5t-21 8.5t-22 1.5v17h319v-17q-25 0 -38.5 -12t-15.5 -29t-0.5 -34t5.5 -29l4 -12l144 -365l93 251l-57 149
q-14 37 -32.5 56.5t-30 22t-29.5 2.5v17h319v-17q-25 0 -39 -12t-16 -29t0 -34t6 -29l4 -12l142 -369l95 251q2 5 5 13.5t9.5 32.5t9.5 46.5t1.5 49.5t-11 46t-32 32.5t-57.5 13.5v17z" />
    <glyph glyph-name="X" unicode="X" horiz-adv-x="830" 
d="M692 98q62 -81 119 -81v-17h-330v17q30 8 30.5 36t-13.5 52l-15 24l-106 148l-55 -74l-7.5 -10.5t-15 -26t-17.5 -37t-10 -39t2.5 -37t25.5 -26t54 -10.5v-17h-300v17q14 0 21 0.5t33 10.5t50 28.5t64.5 60.5t85.5 102l57 75l-123.5 176t-79.5 106l-22 29q-63 82 -126 82
v17h353v-17q-36 0 -42.5 -32.5t27.5 -82.5l102 -138l55 73q2 2 4.5 6t9.5 16.5t13 24.5t11.5 28t7.5 30t-1 28t-12.5 24t-28.5 16.5t-46 6.5v17h328v-17q-124 0 -273 -196l-57 -74z" />
    <glyph glyph-name="Y" unicode="Y" horiz-adv-x="771" 
d="M458 704h300v-17q-123 0 -236 -221l-66 -139v-206q0 -48 25.5 -76t59.5 -28v-17h-315v17q34 0 59.5 28t25.5 76v155l-195 333q-20 35 -42.5 54t-35 22t-29.5 3v16h319v-16q-11 0 -17.5 -0.5t-18.5 -6.5t-15 -17t3 -34t25 -56l141 -230l67 139q2 4 5 11.5t9 28.5t9.5 40.5
t3 43t-7.5 40.5t-26 28.5t-48 11.5v17z" />
    <glyph glyph-name="Z" unicode="Z" horiz-adv-x="617" 
d="M594 704l-370 -687h47q54 0 106 24.5t88 61t60.5 70.5t33.5 60h18l-25 -233h-528l397 687h-47q-99 0 -185 -54.5t-113 -130.5h-20l19 202h519z" />
    <glyph glyph-name="bracketleft" unicode="[" horiz-adv-x="333" 
d="M113 735h205v-17q-26 0 -40 -1.5t-32 -9t-26 -26t-8 -48.5v-686q0 -26 8.5 -42.5t26 -23t32.5 -8.5t39 -2v-17h-205v881z" />
    <glyph glyph-name="backslash" unicode="\" horiz-adv-x="434" 
d="M325 -20l-311 755h91l311 -755h-91z" />
    <glyph glyph-name="bracketright" unicode="]" horiz-adv-x="333" 
d="M11 735h205v-881h-205v17q24 0 39 2t32.5 8.5t26 23t8.5 42.5v686q0 30 -8 48.5t-26 26t-32 9t-40 1.5v17z" />
    <glyph glyph-name="asciicircum" unicode="^" horiz-adv-x="575" 
d="M295 704l185 -328h-45l-152 156l-149 -156h-45l183 328h23z" />
    <glyph glyph-name="underscore" unicode="_" horiz-adv-x="560" 
d="M0 -69h560v-61h-560v61z" />
    <glyph glyph-name="grave" unicode="`" horiz-adv-x="350" 
d="M116 720l169 -163h-37l-244 128z" />
    <glyph glyph-name="a" unicode="a" horiz-adv-x="527" 
d="M300 103v135q-131 -29 -131 -120q0 -3 0.5 -7.5t4 -15.5t9.5 -20t19.5 -16t31.5 -7q24 0 41 15t25 36zM474 52q21 0 27 17l17 -7q-7 -26 -40 -48.5t-77 -22.5q-4 0 -10 0.5t-22 5t-28.5 12t-24.5 24t-15 39.5q-12 -34 -52.5 -57.5t-92.5 -23.5q-5 0 -12.5 0.5t-27.5 6
t-35 15t-27.5 30.5t-12.5 50q0 70 56 102q35 20 163 51q25 6 40 10v62q0 78 -37.5 112.5t-89.5 7.5q-30 -15 -32 -29q0 -5 3 -5q24 -3 37 -22q13 -20 9 -42.5t-24 -36.5q-19 -13 -42.5 -8.5t-36.5 23.5q-20 31 -3 60q21 36 49 55q13 10 29 18q20 11 44.5 16t38.5 5l14 -1
q92 0 129.5 -52t37.5 -148v-149v-7.5t2.5 -16.5t7 -21.5t14.5 -17t24 -7.5z" />
    <glyph glyph-name="b" unicode="b" horiz-adv-x="593" 
d="M308 8q55 0 79.5 47.5t24.5 161.5q0 117 -28 164.5t-91 47.5q-49 0 -76.5 -36t-27.5 -91v-127q0 -87 35 -127t84 -40zM343 471q88 0 150 -66t62 -180q0 -116 -67.5 -175t-178.5 -59q-95 0 -146 51q-37 -32 -79 -41q-19 -4 -19 4v623q0 26 -10.5 39.5t-40.5 24.5v17
l175 37v-360q22 41 67 63t87 22z" />
    <glyph glyph-name="c" unicode="c" horiz-adv-x="500" 
d="M450 129l14 -9q-13 -48 -64 -88.5t-135 -40.5q-94 0 -157 74.5t-63 167.5q0 94 69 166t190 72q81 0 131 -44q31 -28 20 -67q-8 -27 -31.5 -41t-50.5 -7t-41 31t-6 50q6 26 31 40q9 4 -9 12q-17 9 -44 9q-17 0 -36.5 -8.5t-43 -28t-38.5 -63t-15 -103.5q0 -143 127 -171
q37 -8 86 8t66 41z" />
    <glyph glyph-name="d" unicode="d" horiz-adv-x="589" 
d="M399 146v141q0 87 -35 127t-84 40q-56 0 -80.5 -47.5t-24.5 -159.5q0 -120 26.5 -170.5t87.5 -50.5q50 0 80 33.5t30 86.5zM523 97q0 -37 10 -49.5t41 -16.5v-17l-147 -22q-12 -2 -19 2.5t-8 9.5l-1 6v62q-22 -40 -66.5 -60.5t-86.5 -20.5q-89 0 -151 66.5t-62 180.5
q0 116 67.5 174.5t178.5 58.5q69 0 120 -30v191q0 26 -10 37.5t-41 22.5v17l175 37v-649z" />
    <glyph glyph-name="e" unicode="e" horiz-adv-x="524" 
d="M165 257h196q0 92 -27 144.5t-69 52.5q-43 0 -71.5 -60.5t-28.5 -136.5zM270 471q109 0 161 -57t52 -174h-318q6 -71 39 -111.5t86 -52.5q43 -10 92 5.5t67 49.5l17 -9q-15 -50 -67 -90.5t-142 -40.5q-95 0 -158 73t-63 165q0 106 65.5 174t168.5 68z" />
    <glyph glyph-name="f" unicode="f" horiz-adv-x="334" 
d="M369 695q22 -33 5 -68q-11 -22 -34.5 -30t-45.5 3q-23 11 -30.5 34t3.5 46q10 22 35 27q12 2 2 10q-11 11 -39 11q-21 0 -34 -22.5t-21 -82.5t-8 -161h107l-3 -17h-104v-332q0 -46 8 -67.5t33 -28.5v-17h-205v17q26 7 32.5 28.5t6.5 67.5v332h-64l-1 17h65
q0 113 22.5 176t60.5 85t103 22q37 0 66.5 -17t39.5 -33z" />
    <glyph glyph-name="g" unicode="g" horiz-adv-x="572" 
d="M555 468q16 -17 14.5 -40.5t-19.5 -39.5q-17 -16 -40.5 -14t-39.5 19q-15 18 -12 40q1 8 -16 1q-13 -6 -24 -19q36 -37 36 -94q0 -63 -52 -106.5t-141 -43.5q-56 0 -92 15q-11 -5 -23 -20t-18 -31.5t8 -29.5t51 -13h140q26 0 46 -2t47 -11t43.5 -24.5t25.5 -47t4 -74.5
q0 -3 -1 -9t-7.5 -24t-17 -34.5t-33 -37.5t-51.5 -38q-68 -38 -145.5 -49.5t-137 5.5t-78.5 57q-24 51 5.5 104t79.5 75q-52 25 -52 84q0 4 0.5 10t5.5 24t14 33.5t29 33t47 27.5q-37 16 -59.5 51.5t-22.5 75.5q0 63 52 106.5t140 43.5q92 0 144 -44q33 48 94 59
q34 7 56 -18zM214 -42q-55 0 -89 14q-26 -15 -37.5 -33.5t-9.5 -35.5t7 -31.5t12 -23.5l7 -8q43 -51 120.5 -63t149.5 28q29 18 43.5 43t14.5 41v16q0 2 -1 5.5t-6.5 13t-14 16.5t-24.5 12.5t-36 5.5h-136zM261 188q38 0 57 27.5t19 105.5t-19.5 105.5t-56.5 27.5
q-40 0 -57.5 -26.5t-17.5 -106.5q0 -78 19 -105.5t56 -27.5z" />
    <glyph glyph-name="h" unicode="h" horiz-adv-x="539" 
d="M482 123q0 -47 8.5 -73.5t32.5 -32.5v-17h-205v17q26 7 33 33t7 73v189q0 84 -84 84q-51 0 -83 -60v-213q0 -48 8 -73.5t33 -31.5v-18h-206v18q26 7 33 32.5t7 72.5v504q0 26 -9.5 37.5t-40.5 22.5v17l175 42v-383q14 40 66.5 74t98.5 34q64 0 95 -34.5t31 -120.5v-193z
" />
    <glyph glyph-name="i" unicode="i" horiz-adv-x="282" 
d="M200 619q0 -28 -20 -48t-49 -20t-48.5 19.5t-19.5 48.5t19.5 48.5t48.5 19.5t49 -20t20 -48zM203 122q0 -48 8 -73t33 -32v-17h-205v17q26 8 33 33t7 72v222q0 26 -10 40t-41 30v17l175 40v-349z" />
    <glyph glyph-name="j" unicode="j" horiz-adv-x="281" 
d="M79 27v313q0 26 -10 42t-40 32v17l174 40v-421q0 -90 -27 -150t-65 -87t-93 -41v17q27 7 42.5 66.5t17.5 115.5zM201 619q0 -28 -20 -48t-49 -20q-28 0 -48 20t-20 48t20 48t48 20q29 0 49 -20t20 -48z" />
    <glyph glyph-name="k" unicode="k" horiz-adv-x="559" 
d="M185 121q0 -47 8 -72.5t33 -31.5v-17h-206v17q26 7 33 32t7 72v506q0 27 -10 40.5t-40 24.5v17l175 37v-625zM452 67q33 -46 95 -50v-17h-141q-49 0 -70 18.5t-75 99.5l-56 84l94 102q4 4 10 11l22 26t23.5 35.5t11.5 33.5t-9.5 26.5t-44.5 8.5v17h243v-17
q-127 -14 -253 -169z" />
    <glyph glyph-name="l" unicode="l" horiz-adv-x="265" 
d="M198 121q0 -47 8 -72.5t32 -31.5v-17h-205v17q26 7 33 32t7 72v506q0 27 -10 40.5t-40 24.5v17l175 37v-625z" />
    <glyph glyph-name="m" unicode="m" horiz-adv-x="795" 
d="M780 17v-17h-206v17q26 7 33 32.5t7 72.5v194q0 83 -73 83q-28 0 -53.5 -27.5t-25.5 -57.5v-192q0 -48 8 -73.5t33 -31.5v-17h-206v17q26 7 33 32.5t7 72.5v194q0 83 -72 83q-27 0 -53.5 -27.5t-26.5 -54.5v-197q0 -46 8.5 -71t32.5 -32v-17h-205v17q26 7 32.5 31t6.5 72
v219q0 27 -10 43t-40 32v17l175 40v-103q21 44 63 73.5t88 29.5q108 0 125 -106q16 45 60 75.5t92 30.5q63 0 94.5 -33t31.5 -119v-197q0 -48 8 -73.5t33 -31.5z" />
    <glyph glyph-name="n" unicode="n" horiz-adv-x="539" 
d="M476 122q0 -48 8 -73.5t33 -31.5v-17h-206v17q26 7 33 32.5t7 72.5v194q0 37 -22 60t-59 23q-30 0 -57.5 -26t-27.5 -56v-197q0 -46 8.5 -71t32.5 -32v-17h-205v17q26 7 32.5 31t6.5 72v226q0 26 -9.5 38.5t-40.5 29.5v17l175 40v-107q17 45 66.5 76t98.5 31
q63 0 94.5 -33t31.5 -119v-197z" />
    <glyph glyph-name="o" unicode="o" horiz-adv-x="556" 
d="M279 471q111 0 174.5 -68.5t63.5 -171.5t-63.5 -171.5t-174.5 -68.5q-110 0 -174 69t-64 171q0 103 64 171.5t174 68.5zM279 8q54 0 72 44t18 179t-18 179t-72 44t-72.5 -44t-18.5 -179t18.5 -179t72.5 -44z" />
    <glyph glyph-name="p" unicode="p" horiz-adv-x="603" 
d="M308 8q55 0 80 48.5t25 161.5q0 118 -28.5 167t-90.5 49q-43 0 -70 -30.5t-33 -77.5v-183q6 -70 39.5 -102.5t77.5 -32.5zM343 471q89 0 151 -65.5t62 -178.5q0 -116 -68 -176t-178 -60q-71 0 -119 31v-173q0 -46 8 -68.5t33 -28.5v-17h-205v17q26 8 33 30t7 67v509
q0 25 -9.5 34.5t-40.5 21.5v17l174 40v-81q22 40 66.5 60.5t85.5 20.5z" />
    <glyph glyph-name="q" unicode="q" horiz-adv-x="591" 
d="M397 137v150q0 88 -30.5 127.5t-78.5 39.5q-55 0 -79.5 -46.5t-24.5 -159.5q0 -122 26.5 -177t86.5 -55q49 0 74.5 33t25.5 88zM522 -152q0 -46 8 -68t33 -28v-17h-205v17q25 8 32 29.5t7 66.5v194q-51 -51 -131 -51q-89 0 -151 67t-62 181q0 116 67.5 174t178.5 58
q80 0 129 -37q18 14 41.5 24t37 10.5t15.5 -6.5v-614z" />
    <glyph glyph-name="r" unicode="r" horiz-adv-x="425" 
d="M308 466q15 7 40 3.5t41 -16.5q23 -20 25 -51.5t-18 -53.5q-20 -23 -50.5 -25.5t-54.5 17.5q-23 21 -23 49q0 10 -21 0q-30 -16 -57 -59v-208q0 -48 8 -73t33 -32v-17h-207v17q26 8 33 32.5t7 72.5v222q0 26 -10 40.5t-40 29.5v17l176 40v-113q24 38 50 63t37.5 31
t30.5 14z" />
    <glyph glyph-name="s" unicode="s" horiz-adv-x="444" 
d="M303 259q67 -42 86.5 -101t-17.5 -113q-4 -6 -13.5 -15t-45.5 -24t-81 -15q-54 0 -99 11.5t-63 23.5l-19 11v126h17q1 -2 6 -15.5l7.5 -20t9.5 -21.5t13.5 -24l16 -22t20.5 -21t24.5 -16t30.5 -11.5t36 -3.5q35 0 50.5 24.5t4 58t-47.5 57.5l-101 61q-73 44 -91 101
t23 111q2 2 5 5.5t15 12t26.5 15t39 12t52.5 5.5q51 0 92.5 -7.5t57.5 -15.5l15 -7v-112h-17q-6 17 -10.5 27t-17.5 31t-27.5 33.5t-39 23t-53.5 10.5q-24 0 -40.5 -13t-20 -32t10 -43t44.5 -44z" />
    <glyph glyph-name="t" unicode="t" horiz-adv-x="354" 
d="M269 62q39 0 60 35l15 -9q-16 -38 -58 -67.5t-90 -29.5q-64 0 -95 33.5t-31 119.5v301h-50l-3 17h53v134l125 21v-155h119l-4 -17h-115v-298q0 -85 74 -85z" />
    <glyph glyph-name="u" unicode="u" horiz-adv-x="561" 
d="M493 92q0 -35 9 -44t42 -13v-17l-148 -26q-12 -2 -19 3t-8 11l-1 5v88q-18 -42 -70 -75t-99 -33q-63 0 -94.5 33.5t-31.5 119.5v214v26.5t-1.5 17.5t-4.5 14.5l-10 8t-16 7t-24 3.5v17l180 19v-324q0 -83 84 -83q22 0 47 18t40 47v226v12q0 41 -6.5 52.5t-40.5 15.5v17
l172 19v-379z" />
    <glyph glyph-name="v" unicode="v" horiz-adv-x="522" 
d="M327 462h195v-17q-13 0 -22 -3t-26.5 -16t-38.5 -47.5t-43 -88.5l-119 -299h-16l-186 401q-11 24 -25 37t-22 14.5t-21 1.5v17h236v-17q-25 0 -29.5 -18.5t2.5 -37.5l8 -19l99 -212l55 136q3 6 6.5 16.5t8 36.5t2.5 45.5t-17.5 36t-46.5 16.5v17z" />
    <glyph glyph-name="w" unicode="w" horiz-adv-x="814" 
d="M610 462h196v-17q-11 0 -20 -3.5t-26.5 -16t-37.5 -47.5t-40 -88l-115 -299h-16l-146 317l-118 -317h-17l-191 411q-22 43 -63 43v17h236v-17q-26 0 -32.5 -16.5t0.5 -32.5l7 -16l104 -219l64 168l-34 73q-23 43 -64 43v17h237v-17q-28 0 -34.5 -16.5t0.5 -32.5l8 -16
l104 -219l51 133q1 3 3 8.5t6 21t5.5 30t0 32t-8 30t-21.5 21t-38 8.5v17z" />
    <glyph glyph-name="x" unicode="x" horiz-adv-x="547" 
d="M452 59q29 -42 88 -42v-17h-244v17q14 0 19 7t2 17.5t-7.5 21t-9.5 17.5l-5 7l-61 93l-40 -58q-1 -2 -3.5 -6t-7 -15t-6.5 -20.5t-1 -22t8 -21t23.5 -14.5t41.5 -6v-17h-226v17q68 0 158 120l43 59l-143 214q-12 15 -24 23t-17.5 9.5t-16 2t-11.5 0.5v17h239v-17
q-21 0 -26.5 -13.5t15.5 -48.5l57 -87l34 44q3 4 7 11t10 25.5t5 32t-16 25t-46 11.5v17h226v-17l-9 -1q-8 0 -15 -1.5t-19.5 -5t-26 -12t-30 -20.5t-36 -32t-40.5 -46l-35 -46z" />
    <glyph glyph-name="y" unicode="y" horiz-adv-x="541" 
d="M330 462h196v-17q-12 0 -21.5 -3.5t-27 -16.5t-39 -47.5t-43.5 -88.5l-153 -403q-28 -74 -75 -111q-14 -12 -36.5 -15t-40.5 5q-26 12 -36 39t1 53q12 26 39 36.5t53 -1.5q25 -11 34 -41q4 -12 20 0q14 11 24 37l38 103l-189 415q-16 39 -63 39v17h236v-17
q-23 0 -29.5 -15.5t-1.5 -30.5l5 -15l106 -226l53 135q3 6 6.5 16.5t8.5 36.5t3 46.5t-19 36.5t-49 16v17z" />
    <glyph glyph-name="z" unicode="z" horiz-adv-x="463" 
d="M430 462l-244 -445q158 0 205 135h17l-9 -152h-370l260 445q-172 0 -212 -115h-17l5 132h365z" />
    <glyph glyph-name="braceleft" unicode="{" horiz-adv-x="333" 
d="M218 3q0 -75 13.5 -107t45.5 -43v-17q-149 21 -149 167v117q0 22 -1.5 40t-3 31.5t-6 25t-6.5 18.5t-9 13.5t-9 9t-11 5.5l-10.5 3.5t-11.5 2.5t-11 2v17q2 1 10.5 2.5t11.5 2.5t10.5 4t11 6.5t9.5 10t8.5 14.5t7 20t6 26.5t3 34t1.5 42.5v117q0 146 149 167v-17
q-32 -12 -45.5 -43.5t-13.5 -106.5v-144q0 -144 -132 -144q62 0 97 -28.5t35 -104.5v-144z" />
    <glyph glyph-name="bar" unicode="|" horiz-adv-x="222" 
d="M73 -164v899h76v-899h-76z" />
    <glyph glyph-name="braceright" unicode="}" horiz-adv-x="333" 
d="M112 3v144q0 76 35 104.5t97 28.5q-132 0 -132 144v144q0 75 -13.5 106.5t-45.5 43.5v17q149 -21 149 -167v-117q0 -26 1 -47t5 -36.5t6.5 -27t9 -19.5t9.5 -13t12 -9t11 -5t13 -3.5t12 -2.5v-17q-1 0 -11 -2t-11.5 -2.5l-10.5 -3.5t-11 -5.5t-9 -9t-9 -13.5t-6.5 -18.5
t-6 -25t-3 -31.5t-1.5 -40v-117q0 -146 -149 -167v17q32 11 45.5 43t13.5 107z" />
    <glyph glyph-name="asciitilde" unicode="~" horiz-adv-x="600" 
d="M348 196l-120 43q-20 5 -49 5.5t-60.5 -13.5t-43.5 -39l-16 7q20 49 47.5 80.5t52.5 41.5t47.5 13.5t35.5 -0.5l13 -3l120 -43q20 -5 48 -5.5t59 14t43 39.5l15 -6q-20 -49 -47.5 -80.5t-51.5 -42t-45.5 -14t-34.5 -0.5z" />
    <glyph glyph-name="uni007F" horiz-adv-x="0" 
 />
    <glyph glyph-name="uni00A0" unicode="&#xa0;" horiz-adv-x="265" 
 />
    <glyph glyph-name="exclamdown" unicode="&#xa1;" horiz-adv-x="319" 
d="M130 339h64l32 -514h-130zM88 495q0 31 22 52.5t53 21.5t52.5 -21.5t21.5 -52.5t-21.5 -53t-52.5 -22t-53 22t-22 53z" />
    <glyph glyph-name="cent" unicode="&#xa2;" horiz-adv-x="533" 
d="M201 251q0 -136 116 -169v371q-44 -9 -80 -56t-36 -146zM480 129l14 -9q-12 -42 -53 -81t-107 -48v-109h-17v109q-118 0 -180 72t-62 170q0 90 64.5 161t177.5 77v122h17v-122q81 0 131 -44q31 -28 20 -67q-8 -27 -31.5 -41t-50.5 -7t-41 31t-6 50q6 26 31 40q9 4 -9 12
q-17 9 -44 9v-376q37 -5 83 11t63 40z" />
    <glyph glyph-name="sterling" unicode="&#xa3;" horiz-adv-x="670" 
d="M142 -9q-8 0 -18.5 2t-29 8t-34.5 22.5t-24 40.5q-2 10 -3.5 24t5 28t15 28t26.5 24t40.5 15t57 1.5t75.5 -16.5l37 -12q0 45 -48 119q-51 80 -55 87h-93v17h86q-31 71 -35 133t14.5 103.5t51 71.5t72.5 43t80.5 13t74.5 -15q43 -19 63 -38.5t31 -45.5q14 -42 -18 -74
q-20 -22 -50 -22t-52 21t-22 51t21 51q17 18 50 18q15 0 -3 12q-13 9 -25 12q-32 7 -61.5 8t-51.5 -9.5t-37.5 -27.5t-20 -46.5t0.5 -66t24 -86t51 -106.5h181v-17h-171l27 -37q61 -96 5 -198l74 -23q57 -16 102.5 -4t53.5 41l17 -4q0 -31 -10.5 -57t-25.5 -41t-30.5 -25.5
t-25.5 -13.5l-11 -4q-41 -12 -89 4t-112 53q-57 -62 -180 -62zM55 69q17 -61 86 -61q92 0 136 73q-61 36 -94 51q-63 27 -100.5 1t-27.5 -64z" />
    <glyph glyph-name="currency" unicode="&#xa4;" horiz-adv-x="612" 
d="M545 345q0 -76 -44 -139l89 -88l-58 -59l-89 89q-61 -44 -139 -44q-77 0 -140 44l-88 -89l-58 59l88 88q-44 65 -44 139q0 76 44 140l-88 88l58 58l88 -88q63 44 140 44q78 0 139 -44l89 88l58 -58l-89 -88q44 -61 44 -140zM304 190q64 0 109.5 45.5t45.5 109.5
q0 65 -45.5 110.5t-109.5 45.5t-110 -45.5t-46 -110.5q0 -64 46 -109.5t110 -45.5z" />
    <glyph glyph-name="yen" unicode="&#xa5;" horiz-adv-x="702" 
d="M422 704h300v-17q-123 0 -236 -221l-66 -139h165v-17h-165v-72h165v-17h-165v-100q0 -48 25.5 -76t59.5 -28v-17h-315v17q34 0 59.5 28t25.5 76v100h-186v17h186v38l-20 34h-166v17h157l-166 282q-20 35 -42.5 54t-35 22t-29.5 3v16h319v-16q-11 0 -17.5 -0.5t-18.5 -6.5
t-15 -17t3 -34t25 -56l141 -230l67 139q2 4 5 11.5t9 28.5t9.5 40.5t3 43t-7.5 40.5t-26 28.5t-48 11.5v17z" />
    <glyph glyph-name="brokenbar" unicode="&#xa6;" horiz-adv-x="222" 
d="M152 735v-375h-81v375h81zM152 186v-377h-81v377h81z" />
    <glyph glyph-name="section" unicode="&#xa7;" horiz-adv-x="556" 
d="M393 62q32 -31 50.5 -76t13.5 -89q-4 -44 -23 -76t-44.5 -46t-55.5 -23t-57 -7t-48 2q-39 4 -67.5 18t-39.5 28q-25 31 -7 67q11 24 35.5 33t49.5 -2q24 -11 33 -36t-2 -49q-10 -21 -40 -30q-4 -1 4 -5q13 -5 35 -7q55 -7 88 18t38 72q4 38 -10.5 67.5t-59.5 59.5
l-124 80q-45 29 -73 67t-35.5 82t22 93.5t97.5 94.5q-75 69 -65 170q4 44 22 76t42.5 46.5t53.5 23t55.5 6.5t47.5 -2q37 -3 66 -17.5t40 -28.5q25 -30 8 -67q-12 -24 -36.5 -33t-49.5 2q-24 11 -33 36t2 49q11 22 30 28q8 3 -6 9q-8 3 -22 5q-57 5 -94 -19.5t-41 -70.5
q-8 -75 78 -129l124 -78q45 -29 74 -68t37.5 -84.5t-19.5 -96t-94 -93.5zM343 101q13 -7 35 -25q38 28 53.5 55t14.5 46t-19.5 40.5t-34.5 33.5t-44 30q-9 6 -14 9l-120 75q-13 8 -25 19q-40 -27 -57.5 -53t-16 -45.5t18.5 -40t34.5 -34t43.5 -30.5q7 -5 11 -7z" />
    <glyph glyph-name="dieresis" unicode="&#xa8;" horiz-adv-x="292" 
d="M110 646q0 -25 -17.5 -42.5t-41.5 -17.5q-25 0 -42.5 17.5t-17.5 42.5q0 24 17.5 41t42.5 17q24 0 41.5 -17t17.5 -41zM298 646q0 -25 -17.5 -42.5t-41.5 -17.5q-25 0 -42 17.5t-17 42.5q0 24 17 41t42 17q24 0 41.5 -17t17.5 -41z" />
    <glyph glyph-name="copyright" unicode="&#xa9;" horiz-adv-x="815" 
d="M407 746q156 0 266.5 -110.5t110.5 -266.5t-110.5 -266.5t-266.5 -110.5q-157 0 -267 110.5t-110 266.5t110 266.5t267 110.5zM407 68q123 0 211 88.5t88 212.5t-88 213t-211 89q-124 0 -212 -89t-88 -213t88 -212.5t212 -88.5zM525 276h17l5 -85q-52 -35 -143 -35
q-89 0 -142.5 58.5t-53.5 144.5q0 87 53.5 145.5t142.5 58.5q100 0 143 -34l-5 -86h-17q-19 103 -121 103q-94 0 -94 -187q0 -186 94 -186q47 0 78.5 21.5t42.5 81.5z" />
    <glyph glyph-name="ordfeminine" unicode="&#xaa;" horiz-adv-x="319" 
d="M156 513v64q-69 -16 -69 -57q0 -4 1 -9t9.5 -14t24.5 -9q24 0 34 25zM247 486q8 0 10 10l13 -5q-2 -15 -18 -26t-42 -11q-5 0 -13.5 1t-23 10.5t-16.5 25.5q-5 -15 -27 -26t-49 -11q-7 0 -17 1.5t-26.5 14.5t-16.5 37q0 37 23.5 51t92.5 31q12 3 19 5v31q0 39 -20 54
t-49 2q-14 -7 -13 -12q14 0 20 -11q7 -10 4.5 -22t-12.5 -18q-10 -7 -22 -5t-19 12q-10 13 -2 31q11 25 39 39q11 6 24 8.5t21 2.5l8 -1q49 0 68 -27t19 -77v-78q0 -4 0.5 -10.5t7 -17t17.5 -9.5z" />
    <glyph glyph-name="guillemotleft" unicode="&#xab;" horiz-adv-x="610" 
d="M318 505v-39l-123 -200l123 -194v-39l-231 233zM522 505v-39l-122 -200l122 -194v-39l-231 233z" />
    <glyph glyph-name="logicalnot" unicode="&#xac;" horiz-adv-x="653" 
d="M41 399h566v-320h-83v238h-483v82z" />
    <glyph glyph-name="uni00AD" unicode="&#xad;" horiz-adv-x="444" 
d="M379 208h-315v93h315v-93z" />
    <glyph glyph-name="registered" unicode="&#xae;" horiz-adv-x="819" 
d="M408 746q156 0 266.5 -110.5t110.5 -266.5t-110.5 -266.5t-266.5 -110.5t-266.5 110.5t-110.5 266.5t110.5 266.5t266.5 110.5zM408 70q124 0 211.5 87.5t87.5 211.5t-87.5 212t-211.5 88t-211.5 -88t-87.5 -212t87.5 -211.5t211.5 -87.5zM557 247q12 -43 63 -43v-17h-50
h-28t-20.5 2t-16 2.5t-11 6.5t-9 9.5t-7 15t-7.5 19.5t-8 27.5l-11 34.5q-8 23 -24.5 36t-29.5 14l-13 2h-26v-96q0 -27 11 -41.5t29 -14.5v-17h-156v17q39 0 39 56v247q0 24 -9.5 32t-29.5 8v17h133q92 0 137 -20t45 -82q0 -46 -26.5 -68.5t-78.5 -28.5q30 3 58 -24t46 -94
zM376 373q25 0 37.5 1.5t28 9.5t22 27t6.5 51q0 31 -6.5 49t-22 25.5t-28 9t-37.5 1.5h-17v-174h17z" />
    <glyph glyph-name="macron" unicode="&#xaf;" horiz-adv-x="360" 
d="M377 587h-393v69h393v-69z" />
    <glyph glyph-name="degree" unicode="&#xb0;" horiz-adv-x="381" 
d="M187 737q53 0 91.5 -38t38.5 -92q0 -53 -38.5 -90.5t-91.5 -37.5t-91.5 37.5t-38.5 90.5q0 54 38.5 92t91.5 38zM277 607q0 37 -26 63t-63 26q-38 0 -64.5 -26t-26.5 -63t26.5 -63t64.5 -26q37 0 63 26t26 63z" />
    <glyph glyph-name="plusminus" unicode="&#xb1;" horiz-adv-x="608" 
d="M340 378h220v-81h-220v-157h-80v157h-219v81h219v157h80v-157zM41 0v80h519v-80h-519z" />
    <glyph glyph-name="twosuperior" unicode="&#xb2;" horiz-adv-x="270" 
d="M207 464h17l-23 -85h-170l104 152q38 65 4 102q-25 26 -59 15q-24 -8 -35 -32l-16 3q3 24 13.5 41.5t23.5 25.5t25.5 12.5t20.5 5.5h9q34 0 56 -22t22 -53q0 -43 -50 -104l-60 -87h77q27 0 41 26z" />
    <glyph glyph-name="threesuperior" unicode="&#xb3;" horiz-adv-x="276" 
d="M236 485q3 -55 -33.5 -84t-75.5 -29q-47 0 -80 26q-17 12 -12 35q3 14 15.5 22t26.5 5q14 -4 22 -16.5t5 -26.5q-5 -15 -17 -20q-5 -2 5 -5q11 -4 35 -4q28 0 43 24.5t9 51.5q-11 59 -85 68v18q35 11 49.5 31t10 38.5t-19.5 29.5q-16 14 -39.5 9t-35.5 -30l-17 2
q4 33 24.5 51.5t39.5 20.5l18 2q33 0 58 -20t25 -54t-36 -69q30 -11 46.5 -32.5t18.5 -43.5z" />
    <glyph glyph-name="acute" unicode="&#xb4;" horiz-adv-x="372" 
d="M87 558l169 163l112 -35l-244 -128h-37z" />
    <glyph glyph-name="mu" unicode="&#xb5;" horiz-adv-x="557" 
d="M487 92q0 -35 9 -44t42 -13v-17l-148 -26q-12 -2 -19 3t-8 11l-1 5v88q-18 -43 -69.5 -75.5t-101.5 -32.5v-148q0 -36 10 -48.5t42 -15.5v-17l-147 -26q-13 -2 -20 2.5t-8 10.5l-1 6v603v26.5t-1.5 17.5t-4.5 14.5l-10 8t-16 7t-24 3.5v17l180 19v-324q0 -83 84 -83
q22 0 47 18t40 47v226v12q0 41 -6.5 52.5t-40.5 15.5v17l172 19v-379z" />
    <glyph glyph-name="paragraph" unicode="&#xb6;" horiz-adv-x="657" 
d="M581 687q-36 0 -59 -43.5t-23 -98.5v-646q0 -61 20 -104t55 -43v-17h-145v969h152v-17zM288 704h70v-969h-205v17q22 0 42 5t42.5 19t36 45.5t13.5 77.5v401q-56 0 -97.5 8.5t-78 29t-55.5 61.5t-19 101q0 202 250 204h1z" />
    <glyph glyph-name="periodcentered" unicode="&#xb7;" 
d="M198 299q0 -25 -17.5 -42.5t-42.5 -17.5t-42.5 17.5t-17.5 42.5t17.5 42.5t42.5 17.5t42.5 -17.5t17.5 -42.5z" />
    <glyph glyph-name="cedilla" unicode="&#xb8;" 
d="M120 -4h17l-20 -59q63 15 96.5 -14t28.5 -72q-4 -31 -24 -51t-40.5 -26t-40.5 -6q-47 0 -71 21q-14 11 -11 31q3 13 14 19.5t24 3.5q29 -7 24 -37q-1 -9 -8 -14q-1 -1 0 -3t8 -3.5t20 -1.5q24 0 37.5 15t12.5 39q0 23 -24.5 50t-73.5 19z" />
    <glyph glyph-name="onesuperior" unicode="&#xb9;" horiz-adv-x="232" 
d="M150 435q0 -38 40 -38v-17h-147v17q46 0 46 38v174q0 16 -9.5 19.5t-19.5 -1.5l-9 -5l-12 17l95 65h16v-269z" />
    <glyph glyph-name="ordmasculine" unicode="&#xba;" horiz-adv-x="329" 
d="M164 707q129 0 129 -170q0 -164 -129 -164q-72 0 -101 43.5t-29 120.5q0 170 130 170zM164 390q30 0 43 29t13 118q0 90 -14 121.5t-42 31.5q-30 0 -43.5 -31.5t-13.5 -121.5q0 -89 14 -118t43 -29z" />
    <glyph glyph-name="guillemotright" unicode="&#xbb;" horiz-adv-x="609" 
d="M288 466v39l231 -239l-231 -233v39l123 194zM84 466v39l231 -239l-231 -233v39l122 194z" />
    <glyph glyph-name="onequarter" unicode="&#xbc;" horiz-adv-x="654" 
d="M120 644q0 17 -10 20t-20 -3l-10 -6l-11 16l97 75h17v-314q0 -14 3.5 -23t10.5 -12t12 -4t14 -1v-17h-150v17q14 0 22.5 1.5t16.5 11t8 27.5v212zM583 103h-54v-20q0 -30 7.5 -45.5t15 -18t21.5 -2.5v-17h-164v17q10 0 16.5 1.5t13.5 7t10.5 19.5t3.5 36v22h-121v9
l170 255l27 -3v-225h54v-36zM453 139v122l-63 -94q-8 -13 -7.5 -19.5t4 -7.5t10.5 -1h56zM570 708h65l-557 -672h-64z" />
    <glyph glyph-name="onehalf" unicode="&#xbd;" horiz-adv-x="655" 
d="M596 97h17l-27 -97h-193l118 174q42 71 7 113q-25 30 -64 20q-30 -8 -44 -38l-16 5q3 27 14.5 47.5t26 29.5t28 14.5t23.5 6.5h9q39 0 64 -25.5t25 -61.5q0 -46 -59 -118l-69 -99h89q35 0 51 29zM570 708h65l-557 -672h-64zM120 644q0 17 -10 20t-20 -3l-10 -6l-11 16
l97 75h17v-314q0 -14 3.5 -23t10.5 -12t12 -4t14 -1v-17h-150v17q14 0 22.5 1.5t16.5 11t8 27.5v212z" />
    <glyph glyph-name="threequarters" unicode="&#xbe;" horiz-adv-x="656" 
d="M570 708h65l-557 -672h-64zM271 499q0 -66 -39 -96.5t-83 -30.5q-56 0 -92 28q-18 13 -13 39q3 16 17 25t30 6q16 -4 25 -18t6 -31q-7 -17 -14 -20t4.5 -7.5t36.5 -4.5q36 0 49 26t8 61q-16 72 -96 82v15q40 12 56 35t11 43t-21 33q-17 14 -44 7.5t-40 -34.5l-18 6
q4 37 26.5 57.5t43.5 23.5l20 2q38 0 66 -22.5t27.5 -61t-40.5 -77.5q33 -10 52 -35t22 -51zM583 103h-54v-20q0 -30 7.5 -45.5t15 -18t21.5 -2.5v-17h-164v17q10 0 16.5 1.5t13.5 7t10.5 19.5t3.5 36v22h-121v9l170 255l27 -3v-225h54v-36zM453 139v122l-63 -94
q-8 -13 -7.5 -19.5t4 -7.5t10.5 -1h56z" />
    <glyph glyph-name="questiondown" unicode="&#xbf;" horiz-adv-x="605" 
d="M328 306q-35 0 -60 24.5t-25 59.5t25 60t60 25t59.5 -25t24.5 -60t-24.5 -59.5t-59.5 -24.5zM101 -107q-2 52 11.5 93.5t37 66.5t47 39.5t48.5 20.5q41 11 63.5 42.5t18.5 75.5l26 4q16 -102 -53 -159q-36 -30 -48.5 -70t-5.5 -109q4 -55 34.5 -89t71 -38.5t84.5 9.5
q14 6 19 15.5t2 16t-8 7.5q-24 3 -42 27q-16 23 -11 50.5t27 44.5q23 16 50.5 10t44.5 -29q19 -26 7 -69q-5 -22 -27.5 -48t-56.5 -41q-83 -33 -157.5 -26t-127 50.5t-55.5 105.5z" />
    <glyph glyph-name="Agrave" unicode="&#xc0;" horiz-adv-x="708" 
d="M610 90q7 -17 13.5 -29.5t13.5 -20l11.5 -12t12.5 -7t11 -3t11.5 -1t10.5 -0.5v-17h-286v17q22 0 32.5 11t10.5 26.5t-3.5 31.5t-8.5 27l-5 11l-30 73h-237q-1 -4 -3 -10.5t-5.5 -26t-4 -37t4.5 -38.5t16 -36t33.5 -24.5t54.5 -7.5v-17h-246v17q12 1 16.5 2t18.5 12
t27 33.5t36 69t51 114.5l173 456h17zM170 214h228l-119 292zM316 898l169 -163h-37l-244 128z" />
    <glyph glyph-name="Aacute" unicode="&#xc1;" horiz-adv-x="708" 
d="M610 90q7 -17 13.5 -29.5t13.5 -20l11.5 -12t12.5 -7t11 -3t11.5 -1t10.5 -0.5v-17h-286v17q22 0 32.5 11t10.5 26.5t-3.5 31.5t-8.5 27l-5 11l-30 73h-237q-1 -4 -3 -10.5t-5.5 -26t-4 -37t4.5 -38.5t16 -36t33.5 -24.5t54.5 -7.5v-17h-246v17q12 1 16.5 2t18.5 12
t27 33.5t36 69t51 114.5l173 456h17zM170 214h228l-119 292zM223 735l169 163l112 -35l-244 -128h-37z" />
    <glyph glyph-name="Acircumflex" unicode="&#xc2;" horiz-adv-x="708" 
d="M610 90q7 -17 13.5 -29.5t13.5 -20l11.5 -12t12.5 -7t11 -3t11.5 -1t10.5 -0.5v-17h-286v17q22 0 32.5 11t10.5 26.5t-3.5 31.5t-8.5 27l-5 11l-30 73h-237q-1 -4 -3 -10.5t-5.5 -26t-4 -37t4.5 -38.5t16 -36t33.5 -24.5t54.5 -7.5v-17h-246v17q12 1 16.5 2t18.5 12
t27 33.5t36 69t51 114.5l173 456h17zM170 214h228l-119 292zM229 735h-36l155 187l155 -187h-37l-118 77z" />
    <glyph glyph-name="Atilde" unicode="&#xc3;" horiz-adv-x="708" 
d="M395 750l-120 43q-20 5 -48 5.5t-59 -14t-43 -39.5l-15 6q20 49 47 80.5t51.5 42t46 14t34.5 0.5l13 -3l119 -44q32 -11 82.5 1.5t68.5 49.5l15 -8q-20 -49 -47.5 -80.5t-51.5 -42t-45.5 -14t-34.5 -0.5zM610 90q7 -17 13.5 -29.5t13.5 -20l11.5 -12t12.5 -7t11 -3
t11.5 -1t10.5 -0.5v-17h-286v17q22 0 32.5 11t10.5 26.5t-3.5 31.5t-8.5 27l-5 11l-30 73h-237q-1 -4 -3 -10.5t-5.5 -26t-4 -37t4.5 -38.5t16 -36t33.5 -24.5t54.5 -7.5v-17h-246v17q12 1 16.5 2t18.5 12t27 33.5t36 69t51 114.5l173 456h17zM170 214h228l-119 292z" />
    <glyph glyph-name="Adieresis" unicode="&#xc4;" horiz-adv-x="708" 
d="M256 774q-24 0 -41.5 17t-17.5 42q0 24 17.5 41.5t41.5 17.5q25 0 42 -17.5t17 -41.5q0 -25 -17 -42t-42 -17zM444 774q-24 0 -41.5 17t-17.5 42q0 24 17.5 41.5t41.5 17.5q25 0 42.5 -17.5t17.5 -41.5q0 -25 -17.5 -42t-42.5 -17zM610 90q7 -17 13.5 -29.5t13.5 -20
l11.5 -12t12.5 -7t11 -3t11.5 -1t10.5 -0.5v-17h-286v17q22 0 32.5 11t10.5 26.5t-3.5 31.5t-8.5 27l-5 11l-30 73h-237q-1 -4 -3 -10.5t-5.5 -26t-4 -37t4.5 -38.5t16 -36t33.5 -24.5t54.5 -7.5v-17h-246v17q12 1 16.5 2t18.5 12t27 33.5t36 69t51 114.5l173 456h17z
M170 214h228l-119 292z" />
    <glyph glyph-name="Aring" unicode="&#xc5;" horiz-adv-x="708" 
d="M350 775q-44 0 -74.5 30.5t-30.5 74.5t31 75t74 31q44 0 75 -31t31 -75q0 -43 -31 -74t-75 -31zM350 940q-25 0 -42.5 -17.5t-17.5 -42.5t17.5 -42.5t42.5 -17.5t42.5 17.5t17.5 42.5t-17.5 42.5t-42.5 17.5zM610 90q7 -17 13.5 -29.5t13.5 -20l11.5 -12t12.5 -7t11 -3
t11.5 -1t10.5 -0.5v-17h-286v17q22 0 32.5 11t10.5 26.5t-3.5 31.5t-8.5 27l-5 11l-30 73h-237q-1 -4 -3 -10.5t-5.5 -26t-4 -37t4.5 -38.5t16 -36t33.5 -24.5t54.5 -7.5v-17h-246v17q12 1 16.5 2t18.5 12t27 33.5t36 69t51 114.5l173 456h17zM170 214h228l-119 292z" />
    <glyph glyph-name="AE" unicode="&#xc6;" horiz-adv-x="996" 
d="M448 259v307q0 32 -4 52l-203 -359h207zM917 216h17v-216h-562v17q37 0 56.5 23.5t19.5 95.5v106h-214q-25 -47 -38.5 -83.5t-16.5 -60t3 -40t14 -24.5t23.5 -12t23.5 -4.5t22 -0.5h4v-17h-257v17q71 5 217 259l207 367q-18 44 -80 44v17h564v-191h-17q-6 49 -36.5 84.5
t-69.5 52t-77 26t-64 10.5l-26 1h-36v-325h36q5 0 14 0.5t32 5.5t41.5 15t35 31.5t19.5 51.5h17v-224h-17q-3 30 -19 51.5t-36 31t-40 14.5t-33 5l-14 1h-36v-328h36q5 0 14 0.5t35.5 4.5t51.5 10.5t56.5 21.5t56 35.5t45 53t28.5 73.5z" />
    <glyph glyph-name="Ccedilla" unicode="&#xc7;" horiz-adv-x="689" 
d="M646 53q-53 -35 -113.5 -48.5t-145.5 -13.5l-19 -56q63 15 96.5 -14t28.5 -72q-4 -31 -24 -51t-40.5 -26t-40.5 -6q-47 0 -71 21q-14 11 -11 31q3 13 14 19.5t24 3.5q29 -7 24 -37q-1 -9 -8 -14q-1 -1 0 -3t8 -3.5t20 -1.5q24 0 37.5 15t12.5 39q0 23 -24.5 50t-73.5 19
l30 86q-150 6 -240 109t-90 252q0 154 95 257.5t252 103.5q184 0 259 -61l-14 -157h-17q-44 106 -95 153.5t-133 47.5q-59 0 -93.5 -28.5t-54 -105t-19.5 -210.5t20 -211t55 -105t92 -28q86 0 146.5 57.5t81.5 144.5h17z" />
    <glyph glyph-name="Egrave" unicode="&#xc8;" horiz-adv-x="648" 
d="M573 218h17v-218h-563v17q58 0 58 120v429q0 121 -58 121v17h550v-190h-17q-6 48 -39 84t-75 52t-83 25.5t-69 10.5l-28 1h-36v-323h36q6 0 16.5 0.5t37 6t47.5 15.5t39.5 31.5t21.5 50.5h17v-225h-17q-3 29 -20.5 50.5t-41 31.5t-46.5 15.5t-38 5.5l-16 1h-36v-330h36
q6 0 15.5 0.5t38 4.5t54.5 11t60 22t60 35t48 53.5t31 74.5zM275 898l169 -163h-37l-244 128z" />
    <glyph glyph-name="Eacute" unicode="&#xc9;" horiz-adv-x="648" 
d="M573 218h17v-218h-563v17q58 0 58 120v429q0 121 -58 121v17h550v-190h-17q-6 48 -39 84t-75 52t-83 25.5t-69 10.5l-28 1h-36v-323h36q6 0 16.5 0.5t37 6t47.5 15.5t39.5 31.5t21.5 50.5h17v-225h-17q-3 29 -20.5 50.5t-41 31.5t-46.5 15.5t-38 5.5l-16 1h-36v-330h36
q6 0 15.5 0.5t38 4.5t54.5 11t60 22t60 35t48 53.5t31 74.5zM163 735l169 163l112 -35l-244 -128h-37z" />
    <glyph glyph-name="Ecircumflex" unicode="&#xca;" horiz-adv-x="648" 
d="M573 218h17v-218h-563v17q58 0 58 120v429q0 121 -58 121v17h550v-190h-17q-6 48 -39 84t-75 52t-83 25.5t-69 10.5l-28 1h-36v-323h36q6 0 16.5 0.5t37 6t47.5 15.5t39.5 31.5t21.5 50.5h17v-225h-17q-3 29 -20.5 50.5t-41 31.5t-46.5 15.5t-38 5.5l-16 1h-36v-330h36
q6 0 15.5 0.5t38 4.5t54.5 11t60 22t60 35t48 53.5t31 74.5zM189 735h-36l155 187l155 -187h-37l-118 77z" />
    <glyph glyph-name="Edieresis" unicode="&#xcb;" horiz-adv-x="648" 
d="M210 774q-24 0 -41.5 17t-17.5 42q0 24 17.5 41.5t41.5 17.5q25 0 42 -17.5t17 -41.5q0 -25 -17 -42t-42 -17zM398 774q-24 0 -41.5 17t-17.5 42q0 24 17.5 41.5t41.5 17.5q25 0 42.5 -17.5t17.5 -41.5q0 -25 -17.5 -42t-42.5 -17zM573 218h17v-218h-563v17q58 0 58 120
v429q0 121 -58 121v17h550v-190h-17q-6 48 -39 84t-75 52t-83 25.5t-69 10.5l-28 1h-36v-323h36q6 0 16.5 0.5t37 6t47.5 15.5t39.5 31.5t21.5 50.5h17v-225h-17q-3 29 -20.5 50.5t-41 31.5t-46.5 15.5t-38 5.5l-16 1h-36v-330h36q6 0 15.5 0.5t38 4.5t54.5 11t60 22t60 35
t48 53.5t31 74.5z" />
    <glyph glyph-name="Igrave" unicode="&#xcc;" horiz-adv-x="388" 
d="M37 704h315v-17q-35 0 -60 -22.5t-25 -66.5v-476q0 -49 25.5 -77t59.5 -28v-17h-315v17q34 0 59.5 28t25.5 77v476q0 44 -24.5 66.5t-60.5 22.5v17zM156 898l169 -163h-37l-244 128z" />
    <glyph glyph-name="Iacute" unicode="&#xcd;" horiz-adv-x="388" 
d="M352 704h-315v-17q36 0 60.5 -22.5t24.5 -66.5v-476q0 -49 -25.5 -77t-59.5 -28v-17h315v17q-34 0 -59.5 28t-25.5 77v476q0 44 25 66.5t60 22.5v17zM53 735l169 163l112 -35l-244 -128h-37z" />
    <glyph glyph-name="Icircumflex" unicode="&#xce;" horiz-adv-x="388" 
d="M37 704h315v-17q-35 0 -60 -22.5t-25 -66.5v-476q0 -49 25.5 -77t59.5 -28v-17h-315v17q34 0 59.5 28t25.5 77v476q0 44 -24.5 66.5t-60.5 22.5v17zM76 735h-36l155 187l155 -187h-37l-118 77z" />
    <glyph glyph-name="Idieresis" unicode="&#xcf;" horiz-adv-x="388" 
d="M101 774q-24 0 -41.5 17t-17.5 42q0 24 17.5 41.5t41.5 17.5q25 0 42 -17.5t17 -41.5q0 -25 -17 -42t-42 -17zM289 774q-24 0 -41.5 17t-17.5 42q0 24 17.5 41.5t41.5 17.5q25 0 42.5 -17.5t17.5 -41.5q0 -25 -17.5 -42t-42.5 -17zM352 704h-315v-17q36 0 60.5 -22.5
t24.5 -66.5v-476q0 -49 -25.5 -77t-59.5 -28v-17h315v17q-34 0 -59.5 28t-25.5 77v476q0 44 25 66.5t60 22.5v17z" />
    <glyph glyph-name="Eth" unicode="&#xd0;" horiz-adv-x="764" 
d="M34 343v18h74v205q0 48 -21.5 84.5t-53.5 36.5v17h264q65 0 120.5 -8.5t112.5 -32.5t96.5 -62t64.5 -102.5t25 -149.5q0 -349 -419 -349h-264v17q32 0 53.5 34.5t21.5 85.5v206h-74zM297 17q30 0 53 3.5t53.5 13.5t53 33t42.5 57.5t31 92t11 132.5t-11 133t-31 93.5
t-42.5 59t-53 34.5t-54 14.5t-52.5 3.5h-44v-326h146v-18h-146v-326h44z" />
    <glyph glyph-name="Ntilde" unicode="&#xd1;" horiz-adv-x="840" 
d="M468 750l-120 43q-20 5 -48 5.5t-59 -14t-43 -39.5l-15 6q20 49 47 80.5t51.5 42t46 14t34.5 0.5l13 -3l119 -44q32 -11 82.5 1.5t68.5 49.5l15 -8q-20 -49 -47.5 -80.5t-51.5 -42t-45.5 -14t-34.5 -0.5zM520 704h303v-17q-42 0 -73 -24t-45 -59t-22 -70t-9 -60v-24v-450
h-53l-437 549v-294q0 -10 0.5 -26t8 -57t20.5 -72.5t41 -57t67 -25.5v-17h-304v17q42 0 73 24.5t45 59.5t22 70t9 59l1 25v312l-39 49q-15 19 -29.5 32.5t-24 21t-21 11.5t-16 4.5t-15.5 1t-13 0.5v17h245l403 -497v243q0 5 -0.5 13.5t-3 33.5t-7 47t-14.5 49.5t-24 47
t-37 33t-51 13.5v17z" />
    <glyph glyph-name="Ograve" unicode="&#xd2;" horiz-adv-x="776" 
d="M386 713q159 0 252 -105.5t93 -260.5q0 -154 -92.5 -255t-252.5 -101t-252.5 101t-92.5 255q0 155 93 260.5t252 105.5zM386 8q62 0 97.5 27t55 101.5t19.5 210.5q0 135 -19 212t-55 107t-98 30t-98.5 -30t-56 -107t-19.5 -212t19.5 -210t55.5 -102t99 -27zM352 898
l169 -163h-37l-244 128z" />
    <glyph glyph-name="Oacute" unicode="&#xd3;" horiz-adv-x="776" 
d="M386 713q159 0 252 -105.5t93 -260.5q0 -154 -92.5 -255t-252.5 -101t-252.5 101t-92.5 255q0 155 93 260.5t252 105.5zM386 8q62 0 97.5 27t55 101.5t19.5 210.5q0 135 -19 212t-55 107t-98 30t-98.5 -30t-56 -107t-19.5 -212t19.5 -210t55.5 -102t99 -27zM246 735
l169 163l112 -35l-244 -128h-37z" />
    <glyph glyph-name="Ocircumflex" unicode="&#xd4;" horiz-adv-x="776" 
d="M386 713q159 0 252 -105.5t93 -260.5q0 -154 -92.5 -255t-252.5 -101t-252.5 101t-92.5 255q0 155 93 260.5t252 105.5zM386 8q62 0 97.5 27t55 101.5t19.5 210.5q0 135 -19 212t-55 107t-98 30t-98.5 -30t-56 -107t-19.5 -212t19.5 -210t55.5 -102t99 -27zM271 735h-36
l155 187l155 -187h-37l-118 77z" />
    <glyph glyph-name="Otilde" unicode="&#xd5;" horiz-adv-x="776" 
d="M437 750l-120 43q-20 5 -48 5.5t-59 -14t-43 -39.5l-15 6q20 49 47 80.5t51.5 42t46 14t34.5 0.5l13 -3l119 -44q32 -11 82.5 1.5t68.5 49.5l15 -8q-20 -49 -47.5 -80.5t-51.5 -42t-45.5 -14t-34.5 -0.5zM386 713q159 0 252 -105.5t93 -260.5q0 -154 -92.5 -255
t-252.5 -101t-252.5 101t-92.5 255q0 155 93 260.5t252 105.5zM386 8q62 0 97.5 27t55 101.5t19.5 210.5q0 135 -19 212t-55 107t-98 30t-98.5 -30t-56 -107t-19.5 -212t19.5 -210t55.5 -102t99 -27z" />
    <glyph glyph-name="Odieresis" unicode="&#xd6;" horiz-adv-x="776" 
d="M293 774q-24 0 -41.5 17t-17.5 42q0 24 17.5 41.5t41.5 17.5q25 0 42 -17.5t17 -41.5q0 -25 -17 -42t-42 -17zM481 774q-24 0 -41.5 17t-17.5 42q0 24 17.5 41.5t41.5 17.5q25 0 42.5 -17.5t17.5 -41.5q0 -25 -17.5 -42t-42.5 -17zM386 713q159 0 252 -105.5t93 -260.5
q0 -154 -92.5 -255t-252.5 -101t-252.5 101t-92.5 255q0 155 93 260.5t252 105.5zM386 8q62 0 97.5 27t55 101.5t19.5 210.5q0 135 -19 212t-55 107t-98 30t-98.5 -30t-56 -107t-19.5 -212t19.5 -210t55.5 -102t99 -27z" />
    <glyph glyph-name="multiply" unicode="&#xd7;" horiz-adv-x="600" 
d="M540 432l-178 -178l178 -178l-62 -63l-178 178l-178 -178l-63 63l178 178l-178 178l63 63l178 -178l178 178z" />
    <glyph glyph-name="Oslash" unicode="&#xd8;" horiz-adv-x="777" 
d="M386 713q102 0 180 -47l48 79h21l-54 -88q72 -49 111 -131t39 -179q0 -154 -92.5 -255t-252.5 -101q-104 0 -182 45l-43 -71h-21l49 80q-71 47 -109.5 126t-38.5 176q0 155 93 260.5t252 105.5zM212 347q0 -153 23 -226l292 480q-20 51 -54.5 73t-86.5 22
q-62 0 -98.5 -30t-56 -107t-19.5 -212zM386 8q62 0 97.5 27t55 101.5t19.5 210.5q0 151 -24 232l-292 -480q20 -50 54.5 -70.5t89.5 -20.5z" />
    <glyph glyph-name="Ugrave" unicode="&#xd9;" horiz-adv-x="752" 
d="M340 898l169 -163h-37l-244 128zM736 704v-17q-42 0 -73 -15t-45 -37.5t-22 -44.5t-8 -38l-1 -15v-297q0 -61 -17.5 -107.5t-43.5 -72.5t-61.5 -42.5t-65 -21.5t-59.5 -5q-106 0 -177 68.5t-71 186.5v353q0 44 -22.5 66t-57.5 22v17h318v-17q-93 0 -93 -88v-360
q0 -86 47.5 -137t120.5 -51q63 0 114 50.5t51 138.5v297q0 6 -0.5 16t-8 36t-20 46t-40.5 36t-67 16v17h302z" />
    <glyph glyph-name="Uacute" unicode="&#xda;" horiz-adv-x="752" 
d="M736 704v-17q-42 0 -73 -15t-45 -37.5t-22 -44.5t-8 -38l-1 -15v-297q0 -61 -17.5 -107.5t-43.5 -72.5t-61.5 -42.5t-65 -21.5t-59.5 -5q-106 0 -177 68.5t-71 186.5v353q0 44 -22.5 66t-57.5 22v17h318v-17q-93 0 -93 -88v-360q0 -86 47.5 -137t120.5 -51q63 0 114 50.5
t51 138.5v297q0 6 -0.5 16t-8 36t-20 46t-40.5 36t-67 16v17h302zM246 735l169 163l112 -35l-244 -128h-37z" />
    <glyph glyph-name="Ucircumflex" unicode="&#xdb;" horiz-adv-x="752" 
d="M261 735h-36l155 187l155 -187h-37l-118 77zM736 704v-17q-42 0 -73 -15t-45 -37.5t-22 -44.5t-8 -38l-1 -15v-297q0 -61 -17.5 -107.5t-43.5 -72.5t-61.5 -42.5t-65 -21.5t-59.5 -5q-106 0 -177 68.5t-71 186.5v353q0 44 -22.5 66t-57.5 22v17h318v-17q-93 0 -93 -88
v-360q0 -86 47.5 -137t120.5 -51q63 0 114 50.5t51 138.5v297q0 6 -0.5 16t-8 36t-20 46t-40.5 36t-67 16v17h302z" />
    <glyph glyph-name="Udieresis" unicode="&#xdc;" horiz-adv-x="752" 
d="M282 774q-24 0 -41.5 17t-17.5 42q0 24 17.5 41.5t41.5 17.5q25 0 42 -17.5t17 -41.5q0 -25 -17 -42t-42 -17zM470 774q-24 0 -41.5 17t-17.5 42q0 24 17.5 41.5t41.5 17.5q25 0 42.5 -17.5t17.5 -41.5q0 -25 -17.5 -42t-42.5 -17zM736 704v-17q-42 0 -73 -15t-45 -37.5
t-22 -44.5t-8 -38l-1 -15v-297q0 -61 -17.5 -107.5t-43.5 -72.5t-61.5 -42.5t-65 -21.5t-59.5 -5q-106 0 -177 68.5t-71 186.5v353q0 44 -22.5 66t-57.5 22v17h318v-17q-93 0 -93 -88v-360q0 -86 47.5 -137t120.5 -51q63 0 114 50.5t51 138.5v297q0 6 -0.5 16t-8 36t-20 46
t-40.5 36t-67 16v17h302z" />
    <glyph glyph-name="Yacute" unicode="&#xdd;" horiz-adv-x="771" 
d="M458 704h300v-17q-123 0 -236 -221l-66 -139v-206q0 -48 25.5 -76t59.5 -28v-17h-315v17q34 0 59.5 28t25.5 76v155l-195 333q-20 35 -42.5 54t-35 22t-29.5 3v16h319v-16q-11 0 -17.5 -0.5t-18.5 -6.5t-15 -17t3 -34t25 -56l141 -230l67 139q2 4 5 11.5t9 28.5t9.5 40.5
t3 43t-7.5 40.5t-26 28.5t-48 11.5v17zM275 735l169 163l112 -35l-244 -128h-37z" />
    <glyph glyph-name="Thorn" unicode="&#xde;" horiz-adv-x="665" 
d="M258 559v-367h36q30 0 47.5 1.5t41 6.5t37 17t26.5 31.5t18.5 51t5.5 74.5q0 52 -9.5 87.5t-23.5 54.5t-39.5 29t-46.5 12t-57 2h-36zM294 175h-36v-54q0 -48 25 -76t59 -28v-17h-315v17q34 0 59.5 28t25.5 76v477q0 44 -24.5 66.5t-60.5 22.5v17h315v-17
q-35 0 -59.5 -22.5t-24.5 -66.5v-22h36q64 0 112.5 -5t93 -18t73 -35.5t45 -58.5t16.5 -85t-17 -85t-45 -57.5t-73 -34.5t-93 -17.5t-112 -4.5z" />
    <glyph glyph-name="germandbls" unicode="&#xdf;" horiz-adv-x="624" 
d="M371 420q21 0 48.5 -6.5t60 -23t59 -40.5t44.5 -62.5t18 -84.5q0 -93 -56.5 -152.5t-183.5 -59.5q-76 0 -104 35q-26 28 -16 65q7 24 28.5 35.5t45.5 4.5q23 -7 35 -28.5t5 -44.5q-8 -25 -29 -35q-9 -5 3 -10q10 -5 32 -5q28 0 47.5 14t29.5 32.5t15 51t6 54t1 55.5
q0 85 -58.5 139t-116.5 54v17q47 0 75 33t28 124q0 44 -10.5 75t-21.5 44.5t-31 21t-25 7.5h-17q-42 0 -64.5 -54.5t-24.5 -109.5l-2 -54v-512h-164v17q26 8 33 33t7 72v366q0 119 54.5 189t160.5 70q35 0 61.5 -3t57.5 -13t51.5 -28t34 -50.5t13.5 -76.5q0 -36 -11.5 -65
t-28 -45t-36 -27t-33 -15t-21.5 -4z" />
    <glyph glyph-name="agrave" unicode="&#xe0;" horiz-adv-x="526" 
d="M300 103v135q-131 -29 -131 -120q0 -3 0.5 -7.5t4 -15.5t9.5 -20t19.5 -16t31.5 -7q24 0 41 15t25 36zM474 52q21 0 27 17l17 -7q-7 -26 -40 -48.5t-77 -22.5q-4 0 -10 0.5t-22 5t-28.5 12t-24.5 24t-15 39.5q-12 -34 -52.5 -57.5t-92.5 -23.5q-5 0 -12.5 0.5t-27.5 6
t-35 15t-27.5 30.5t-12.5 50q0 70 56 102q35 20 163 51q25 6 40 10v62q0 78 -37.5 112.5t-89.5 7.5q-30 -15 -32 -29q0 -5 3 -5q24 -3 37 -22q13 -20 9 -42.5t-24 -36.5q-19 -13 -42.5 -8.5t-36.5 23.5q-20 31 -3 60q21 36 49 55q13 10 29 18q20 11 44.5 16t38.5 5l14 -1
q92 0 129.5 -52t37.5 -148v-149v-7.5t2.5 -16.5t7 -21.5t14.5 -17t24 -7.5zM232 704l169 -163h-37l-244 128z" />
    <glyph glyph-name="aacute" unicode="&#xe1;" horiz-adv-x="526" 
d="M300 103v135q-131 -29 -131 -120q0 -3 0.5 -7.5t4 -15.5t9.5 -20t19.5 -16t31.5 -7q24 0 41 15t25 36zM474 52q21 0 27 17l17 -7q-7 -26 -40 -48.5t-77 -22.5q-4 0 -10 0.5t-22 5t-28.5 12t-24.5 24t-15 39.5q-12 -34 -52.5 -57.5t-92.5 -23.5q-5 0 -12.5 0.5t-27.5 6
t-35 15t-27.5 30.5t-12.5 50q0 70 56 102q35 20 163 51q25 6 40 10v62q0 78 -37.5 112.5t-89.5 7.5q-30 -15 -32 -29q0 -5 3 -5q24 -3 37 -22q13 -20 9 -42.5t-24 -36.5q-19 -13 -42.5 -8.5t-36.5 23.5q-20 31 -3 60q21 36 49 55q13 10 29 18q20 11 44.5 16t38.5 5l14 -1
q92 0 129.5 -52t37.5 -148v-149v-7.5t2.5 -16.5t7 -21.5t14.5 -17t24 -7.5zM141 541l169 163l112 -35l-244 -128h-37z" />
    <glyph glyph-name="acircumflex" unicode="&#xe2;" horiz-adv-x="526" 
d="M300 103v135q-131 -29 -131 -120q0 -3 0.5 -7.5t4 -15.5t9.5 -20t19.5 -16t31.5 -7q24 0 41 15t25 36zM474 52q21 0 27 17l17 -7q-7 -26 -40 -48.5t-77 -22.5q-4 0 -10 0.5t-22 5t-28.5 12t-24.5 24t-15 39.5q-12 -34 -52.5 -57.5t-92.5 -23.5q-5 0 -12.5 0.5t-27.5 6
t-35 15t-27.5 30.5t-12.5 50q0 70 56 102q35 20 163 51q25 6 40 10v62q0 78 -37.5 112.5t-89.5 7.5q-30 -15 -32 -29q0 -5 3 -5q24 -3 37 -22q13 -20 9 -42.5t-24 -36.5q-19 -13 -42.5 -8.5t-36.5 23.5q-20 31 -3 60q21 36 49 55q13 10 29 18q20 11 44.5 16t38.5 5l14 -1
q92 0 129.5 -52t37.5 -148v-149v-7.5t2.5 -16.5t7 -21.5t14.5 -17t24 -7.5zM156 517h-36l155 187l155 -187h-37l-118 77z" />
    <glyph glyph-name="atilde" unicode="&#xe3;" horiz-adv-x="526" 
d="M316 547l-120 43q-20 5 -48 5.5t-59 -14t-43 -39.5l-15 6q20 49 47 80.5t51.5 42t46 14t34.5 0.5l13 -3l119 -44q32 -11 82.5 1.5t68.5 49.5l15 -8q-20 -49 -47.5 -80.5t-51.5 -42t-45.5 -14t-34.5 -0.5zM300 103v135q-131 -29 -131 -120q0 -3 0.5 -7.5t4 -15.5t9.5 -20
t19.5 -16t31.5 -7q24 0 41 15t25 36zM474 52q21 0 27 17l17 -7q-7 -26 -40 -48.5t-77 -22.5q-4 0 -10 0.5t-22 5t-28.5 12t-24.5 24t-15 39.5q-12 -34 -52.5 -57.5t-92.5 -23.5q-5 0 -12.5 0.5t-27.5 6t-35 15t-27.5 30.5t-12.5 50q0 70 56 102q35 20 163 51q25 6 40 10v62
q0 78 -37.5 112.5t-89.5 7.5q-30 -15 -32 -29q0 -5 3 -5q24 -3 37 -22q13 -20 9 -42.5t-24 -36.5q-19 -13 -42.5 -8.5t-36.5 23.5q-20 31 -3 60q21 36 49 55q13 10 29 18q20 11 44.5 16t38.5 5l14 -1q92 0 129.5 -52t37.5 -148v-149v-7.5t2.5 -16.5t7 -21.5t14.5 -17
t24 -7.5z" />
    <glyph glyph-name="adieresis" unicode="&#xe4;" horiz-adv-x="526" 
d="M236 616q0 -25 -17 -42.5t-42 -17.5t-42 17.5t-17 42.5q0 24 17 41.5t42 17.5t42 -17.5t17 -41.5zM424 616q0 -25 -17 -42.5t-42 -17.5t-42 17.5t-17 42.5q0 24 17 41.5t42 17.5t42 -17.5t17 -41.5zM300 103v135q-131 -29 -131 -120q0 -3 0.5 -7.5t4 -15.5t9.5 -20
t19.5 -16t31.5 -7q24 0 41 15t25 36zM474 52q21 0 27 17l17 -7q-7 -26 -40 -48.5t-77 -22.5q-4 0 -10 0.5t-22 5t-28.5 12t-24.5 24t-15 39.5q-12 -34 -52.5 -57.5t-92.5 -23.5q-5 0 -12.5 0.5t-27.5 6t-35 15t-27.5 30.5t-12.5 50q0 70 56 102q35 20 163 51q25 6 40 10v62
q0 78 -37.5 112.5t-89.5 7.5q-30 -15 -32 -29q0 -5 3 -5q24 -3 37 -22q13 -20 9 -42.5t-24 -36.5q-19 -13 -42.5 -8.5t-36.5 23.5q-20 31 -3 60q21 36 49 55q13 10 29 18q20 11 44.5 16t38.5 5l14 -1q92 0 129.5 -52t37.5 -148v-149v-7.5t2.5 -16.5t7 -21.5t14.5 -17
t24 -7.5z" />
    <glyph glyph-name="aring" unicode="&#xe5;" horiz-adv-x="526" 
d="M266 533q-44 0 -74.5 30.5t-30.5 74.5t30.5 74.5t74.5 30.5t74.5 -30.5t30.5 -74.5t-30.5 -74.5t-74.5 -30.5zM266 698q-25 0 -42.5 -17.5t-17.5 -42.5t17.5 -42.5t42.5 -17.5t42.5 17.5t17.5 42.5t-17.5 42.5t-42.5 17.5zM300 103v135q-131 -29 -131 -120q0 -3 0.5 -7.5
t4 -15.5t9.5 -20t19.5 -16t31.5 -7q24 0 41 15t25 36zM474 52q21 0 27 17l17 -7q-7 -26 -40 -48.5t-77 -22.5q-4 0 -10 0.5t-22 5t-28.5 12t-24.5 24t-15 39.5q-12 -34 -52.5 -57.5t-92.5 -23.5q-5 0 -12.5 0.5t-27.5 6t-35 15t-27.5 30.5t-12.5 50q0 70 56 102
q35 20 163 51q25 6 40 10v62q0 78 -37.5 112.5t-89.5 7.5q-30 -15 -32 -29q0 -5 3 -5q24 -3 37 -22q13 -20 9 -42.5t-24 -36.5q-19 -13 -42.5 -8.5t-36.5 23.5q-20 31 -3 60q21 36 49 55q13 10 29 18q20 11 44.5 16t38.5 5l14 -1q92 0 129.5 -52t37.5 -148v-149v-7.5
t2.5 -16.5t7 -21.5t14.5 -17t24 -7.5z" />
    <glyph glyph-name="ae" unicode="&#xe6;" horiz-adv-x="739" 
d="M506 454q-44 0 -67.5 -59t-23.5 -138h170q0 197 -79 197zM230 52q32 0 53 20t30 41q-17 36 -21 84l-1 44q-15 -4 -30.5 -10.5t-39 -21t-38 -38t-14.5 -53.5v-7.5t3 -15.5t8.5 -20t18.5 -16t31 -7zM526 76q39 -9 79 8.5t59 46.5l18 -9q-8 -24 -17.5 -43t-29.5 -41
t-54.5 -34.5t-81.5 -12.5q-58 0 -105.5 31t-68.5 72q-10 -41 -57 -72t-112 -31q-5 0 -12.5 0.5t-27.5 6t-35 15t-27.5 30.5t-12.5 50q0 37 13 61t43 41t70 29.5t103 29.5q14 3 21 5v59q0 78 -35.5 112t-87.5 7q-33 -17 -28 -28q1 -3 3 -3q20 -3 35 -24q13 -20 9 -42.5
t-24 -36.5q-19 -13 -42.5 -8.5t-36.5 23.5q-20 31 -3 60q0 1 3 5.5t3.5 6t4 6l5.5 7t6 7t7.5 7.5l8.5 7.5t10.5 8.5t13 8.5t15.5 8.5q20 11 42.5 16t35.5 5h12q80 0 119 -67q69 67 139 67q106 0 148.5 -55t42.5 -176h-282q9 -141 111 -164z" />
    <glyph glyph-name="ccedilla" unicode="&#xe7;" horiz-adv-x="499" 
d="M450 129l14 -9q-13 -48 -64 -88.5t-135 -40.5q-7 0 -15 1l-18 -55q63 15 96.5 -14t28.5 -72q-4 -31 -24 -51t-40.5 -26t-40.5 -6q-47 0 -71 21q-14 11 -11 31q3 13 14 19.5t24 3.5q29 -7 24 -37q-1 -9 -8 -14q-1 -1 0 -3t8 -3.5t20 -1.5q24 0 37.5 15t12.5 39
q0 23 -24.5 50t-73.5 19l30 87q-83 12 -136 83.5t-53 155.5q0 94 69 166t190 72q81 0 131 -44q31 -28 20 -67q-8 -27 -31.5 -41t-50.5 -7t-41 31t-6 50q6 26 31 40q9 4 -9 12q-17 9 -44 9q-17 0 -36.5 -8.5t-43 -28t-38.5 -63t-15 -103.5q0 -143 127 -171q37 -8 86 8t66 41z
" />
    <glyph glyph-name="egrave" unicode="&#xe8;" horiz-adv-x="524" 
d="M165 257h196q0 92 -27 144.5t-69 52.5q-43 0 -71.5 -60.5t-28.5 -136.5zM270 471q109 0 161 -57t52 -174h-318q6 -71 39 -111.5t86 -52.5q43 -10 92 5.5t67 49.5l17 -9q-15 -50 -67 -90.5t-142 -40.5q-95 0 -158 73t-63 165q0 106 65.5 174t168.5 68zM228 704l169 -163
h-37l-244 128z" />
    <glyph glyph-name="eacute" unicode="&#xe9;" horiz-adv-x="524" 
d="M165 257h196q0 92 -27 144.5t-69 52.5q-43 0 -71.5 -60.5t-28.5 -136.5zM270 471q109 0 161 -57t52 -174h-318q6 -71 39 -111.5t86 -52.5q43 -10 92 5.5t67 49.5l17 -9q-15 -50 -67 -90.5t-142 -40.5q-95 0 -158 73t-63 165q0 106 65.5 174t168.5 68zM127 541l169 163
l112 -35l-244 -128h-37z" />
    <glyph glyph-name="ecircumflex" unicode="&#xea;" horiz-adv-x="524" 
d="M165 257h196q0 92 -27 144.5t-69 52.5q-43 0 -71.5 -60.5t-28.5 -136.5zM270 471q109 0 161 -57t52 -174h-318q6 -71 39 -111.5t86 -52.5q43 -10 92 5.5t67 49.5l17 -9q-15 -50 -67 -90.5t-142 -40.5q-95 0 -158 73t-63 165q0 106 65.5 174t168.5 68zM138 517h-36
l155 187l155 -187h-37l-118 77z" />
    <glyph glyph-name="edieresis" unicode="&#xeb;" horiz-adv-x="524" 
d="M226 616q0 -25 -17 -42.5t-42 -17.5t-42 17.5t-17 42.5q0 24 17 41.5t42 17.5t42 -17.5t17 -41.5zM414 616q0 -25 -17 -42.5t-42 -17.5t-42 17.5t-17 42.5q0 24 17 41.5t42 17.5t42 -17.5t17 -41.5zM165 257h196q0 92 -27 144.5t-69 52.5q-43 0 -71.5 -60.5t-28.5 -136.5
zM270 471q109 0 161 -57t52 -174h-318q6 -71 39 -111.5t86 -52.5q43 -10 92 5.5t67 49.5l17 -9q-15 -50 -67 -90.5t-142 -40.5q-95 0 -158 73t-63 165q0 106 65.5 174t168.5 68z" />
    <glyph glyph-name="igrave" unicode="&#xec;" horiz-adv-x="282" 
d="M203 122q0 -48 8 -73t33 -32v-17h-205v17q26 8 33 33t7 72v222q0 26 -10 40t-41 30v17l175 40v-349zM108 704l169 -163h-37l-244 128z" />
    <glyph glyph-name="iacute" unicode="&#xed;" horiz-adv-x="282" 
d="M203 122q0 -48 8 -73t33 -32v-17h-205v17q26 8 33 33t7 72v222q0 26 -10 40t-41 30v17l175 40v-349zM9 541l169 163l112 -35l-244 -128h-37z" />
    <glyph glyph-name="icircumflex" unicode="&#xee;" horiz-adv-x="282" 
d="M203 122q0 -48 8 -73t33 -32v-17h-205v17q26 8 33 33t7 72v222q0 26 -10 40t-41 30v17l175 40v-349zM34 517h-36l155 187l155 -187h-37l-118 77z" />
    <glyph glyph-name="idieresis" unicode="&#xef;" horiz-adv-x="282" 
d="M102 616q0 -25 -17 -42.5t-42 -17.5t-42 17.5t-17 42.5q0 24 17 41.5t42 17.5t42 -17.5t17 -41.5zM290 616q0 -25 -17 -42.5t-42 -17.5t-42 17.5t-17 42.5q0 24 17 41.5t42 17.5t42 -17.5t17 -41.5zM203 122q0 -48 8 -73t33 -32v-17h-205v17q26 8 33 33t7 72v222
q0 26 -10 40t-41 30v17l175 40v-349z" />
    <glyph glyph-name="eth" unicode="&#xf0;" horiz-adv-x="579" 
d="M383 332v2q-41 73 -104 73q-42 0 -68 -56t-26 -153q0 -111 23.5 -150.5t78.5 -39.5t75.5 73t20.5 251zM541 318q0 -152 -65 -239.5t-189 -87.5q-108 0 -178.5 58t-70.5 169q0 93 46.5 156t145.5 63q112 0 153 -69q-3 154 -41 235l-170 -86l-13 14l174 90q-48 75 -150 75
v17q127 0 217 -58l103 53l15 -14l-101 -52q124 -106 124 -324z" />
    <glyph glyph-name="ntilde" unicode="&#xf1;" horiz-adv-x="539" 
d="M312 547l-120 43q-20 5 -48 5.5t-59 -14t-43 -39.5l-15 6q20 49 47 80.5t51.5 42t46 14t34.5 0.5l13 -3l119 -44q32 -11 82.5 1.5t68.5 49.5l15 -8q-20 -49 -47.5 -80.5t-51.5 -42t-45.5 -14t-34.5 -0.5zM476 122q0 -48 8 -73.5t33 -31.5v-17h-206v17q26 7 33 32.5
t7 72.5v194q0 37 -22 60t-59 23q-30 0 -57.5 -26t-27.5 -56v-197q0 -46 8.5 -71t32.5 -32v-17h-205v17q26 7 32.5 31t6.5 72v226q0 26 -9.5 38.5t-40.5 29.5v17l175 40v-107q17 45 66.5 76t98.5 31q63 0 94.5 -33t31.5 -119v-197z" />
    <glyph glyph-name="ograve" unicode="&#xf2;" horiz-adv-x="555" 
d="M279 471q111 0 174.5 -68.5t63.5 -171.5t-63.5 -171.5t-174.5 -68.5q-110 0 -174 69t-64 171q0 103 64 171.5t174 68.5zM279 8q54 0 72 44t18 179t-18 179t-72 44t-72.5 -44t-18.5 -179t18.5 -179t72.5 -44zM242 704l169 -163h-37l-244 128z" />
    <glyph glyph-name="oacute" unicode="&#xf3;" horiz-adv-x="555" 
d="M279 471q111 0 174.5 -68.5t63.5 -171.5t-63.5 -171.5t-174.5 -68.5q-110 0 -174 69t-64 171q0 103 64 171.5t174 68.5zM279 8q54 0 72 44t18 179t-18 179t-72 44t-72.5 -44t-18.5 -179t18.5 -179t72.5 -44zM149 541l169 163l112 -35l-244 -128h-37z" />
    <glyph glyph-name="ocircumflex" unicode="&#xf4;" horiz-adv-x="555" 
d="M279 471q111 0 174.5 -68.5t63.5 -171.5t-63.5 -171.5t-174.5 -68.5q-110 0 -174 69t-64 171q0 103 64 171.5t174 68.5zM279 8q54 0 72 44t18 179t-18 179t-72 44t-72.5 -44t-18.5 -179t18.5 -179t72.5 -44zM165 517h-36l155 187l155 -187h-37l-118 77z" />
    <glyph glyph-name="otilde" unicode="&#xf5;" horiz-adv-x="555" 
d="M321 547l-120 43q-20 5 -48 5.5t-59 -14t-43 -39.5l-15 6q20 49 47 80.5t51.5 42t46 14t34.5 0.5l13 -3l119 -44q32 -11 82.5 1.5t68.5 49.5l15 -8q-20 -49 -47.5 -80.5t-51.5 -42t-45.5 -14t-34.5 -0.5zM279 471q111 0 174.5 -68.5t63.5 -171.5t-63.5 -171.5
t-174.5 -68.5q-110 0 -174 69t-64 171q0 103 64 171.5t174 68.5zM279 8q54 0 72 44t18 179t-18 179t-72 44t-72.5 -44t-18.5 -179t18.5 -179t72.5 -44z" />
    <glyph glyph-name="odieresis" unicode="&#xf6;" horiz-adv-x="555" 
d="M244 616q0 -25 -17 -42.5t-42 -17.5t-42 17.5t-17 42.5q0 24 17 41.5t42 17.5t42 -17.5t17 -41.5zM432 616q0 -25 -17 -42.5t-42 -17.5t-42 17.5t-17 42.5q0 24 17 41.5t42 17.5t42 -17.5t17 -41.5zM279 471q111 0 174.5 -68.5t63.5 -171.5t-63.5 -171.5t-174.5 -68.5
q-110 0 -174 69t-64 171q0 103 64 171.5t174 68.5zM279 8q54 0 72 44t18 179t-18 179t-72 44t-72.5 -44t-18.5 -179t18.5 -179t72.5 -44z" />
    <glyph glyph-name="divide" unicode="&#xf7;" horiz-adv-x="625" 
d="M581 230h-536v93h536v-93zM380 493q0 -28 -20 -48t-48 -20t-47.5 20t-19.5 48t19.5 48t47.5 20t48 -20t20 -48zM380 60q0 -28 -20 -48t-48 -20t-47.5 20t-19.5 48t19.5 47.5t47.5 19.5t48 -19.5t20 -47.5z" />
    <glyph glyph-name="oslash" unicode="&#xf8;" horiz-adv-x="557" 
d="M87 -67l58 94q-50 31 -77 85t-27 119q0 103 64 171.5t174 68.5q67 0 122 -29l51 83h17l-56 -90q104 -66 104 -204q0 -103 -63.5 -171.5t-174.5 -68.5q-69 0 -122 28l-53 -86h-17zM188 231q0 -86 5 -125l167 270q-8 44 -26.5 61t-54.5 17q-54 0 -72.5 -44t-18.5 -179z
M279 8q54 0 72 44t18 179q0 77 -6 123l-166 -270q9 -43 27.5 -59.5t54.5 -16.5z" />
    <glyph glyph-name="ugrave" unicode="&#xf9;" horiz-adv-x="559" 
d="M493 92q0 -35 9 -44t42 -13v-17l-148 -26q-12 -2 -19 3t-8 11l-1 5v88q-18 -42 -70 -75t-99 -33q-63 0 -94.5 33.5t-31.5 119.5v214v26.5t-1.5 17.5t-4.5 14.5l-10 8t-16 7t-24 3.5v17l180 19v-324q0 -83 84 -83q22 0 47 18t40 47v226v12q0 41 -6.5 52.5t-40.5 15.5v17
l172 19v-379zM242 704l169 -163h-37l-244 128z" />
    <glyph glyph-name="uacute" unicode="&#xfa;" horiz-adv-x="559" 
d="M493 92q0 -35 9 -44t42 -13v-17l-148 -26q-12 -2 -19 3t-8 11l-1 5v88q-18 -42 -70 -75t-99 -33q-63 0 -94.5 33.5t-31.5 119.5v214v26.5t-1.5 17.5t-4.5 14.5l-10 8t-16 7t-24 3.5v17l180 19v-324q0 -83 84 -83q22 0 47 18t40 47v226v12q0 41 -6.5 52.5t-40.5 15.5v17
l172 19v-379zM149 541l169 163l112 -35l-244 -128h-37z" />
    <glyph glyph-name="ucircumflex" unicode="&#xfb;" horiz-adv-x="559" 
d="M493 92q0 -35 9 -44t42 -13v-17l-148 -26q-12 -2 -19 3t-8 11l-1 5v88q-18 -42 -70 -75t-99 -33q-63 0 -94.5 33.5t-31.5 119.5v214v26.5t-1.5 17.5t-4.5 14.5l-10 8t-16 7t-24 3.5v17l180 19v-324q0 -83 84 -83q22 0 47 18t40 47v226v12q0 41 -6.5 52.5t-40.5 15.5v17
l172 19v-379zM158 517h-36l155 187l155 -187h-37l-118 77z" />
    <glyph glyph-name="udieresis" unicode="&#xfc;" horiz-adv-x="559" 
d="M242 616q0 -25 -17 -42.5t-42 -17.5t-42 17.5t-17 42.5q0 24 17 41.5t42 17.5t42 -17.5t17 -41.5zM430 616q0 -25 -17 -42.5t-42 -17.5t-42 17.5t-17 42.5q0 24 17 41.5t42 17.5t42 -17.5t17 -41.5zM493 92q0 -35 9 -44t42 -13v-17l-148 -26q-12 -2 -19 3t-8 11l-1 5v88
q-18 -42 -70 -75t-99 -33q-63 0 -94.5 33.5t-31.5 119.5v214v26.5t-1.5 17.5t-4.5 14.5l-10 8t-16 7t-24 3.5v17l180 19v-324q0 -83 84 -83q22 0 47 18t40 47v226v12q0 41 -6.5 52.5t-40.5 15.5v17l172 19v-379z" />
    <glyph glyph-name="yacute" unicode="&#xfd;" horiz-adv-x="541" 
d="M330 462h196v-17q-12 0 -21.5 -3.5t-27 -16.5t-39 -47.5t-43.5 -88.5l-153 -403q-28 -74 -75 -111q-14 -12 -36.5 -15t-40.5 5q-26 12 -36 39t1 53q12 26 39 36.5t53 -1.5q25 -11 34 -41q4 -12 20 0q14 11 24 37l38 103l-189 415q-16 39 -63 39v17h236v-17
q-23 0 -29.5 -15.5t-1.5 -30.5l5 -15l106 -226l53 135q3 6 6.5 16.5t8.5 36.5t3 46.5t-19 36.5t-49 16v17zM130 541l169 163l112 -35l-244 -128h-37z" />
    <glyph glyph-name="thorn" unicode="&#xfe;" horiz-adv-x="600" 
d="M308 8q55 0 80 48.5t25 161.5q0 118 -28.5 167t-90.5 49q-43 0 -70 -30.5t-33 -77.5v-183q6 -70 39.5 -102.5t77.5 -32.5zM343 471q89 0 151 -65.5t62 -178.5q0 -116 -68 -176t-178 -60q-71 0 -119 31v-173q0 -46 8 -68.5t33 -28.5v-17h-205v17q26 8 33 30t7 67v769
q0 25 -9.5 34.5t-40.5 21.5v17l174 40v-341q22 40 66.5 60.5t85.5 20.5z" />
    <glyph glyph-name="ydieresis" unicode="&#xff;" horiz-adv-x="541" 
d="M235 616q0 -25 -17 -42.5t-42 -17.5t-42 17.5t-17 42.5q0 24 17 41.5t42 17.5t42 -17.5t17 -41.5zM423 616q0 -25 -17 -42.5t-42 -17.5t-42 17.5t-17 42.5q0 24 17 41.5t42 17.5t42 -17.5t17 -41.5zM330 462h196v-17q-12 0 -21.5 -3.5t-27 -16.5t-39 -47.5t-43.5 -88.5
l-153 -403q-28 -74 -75 -111q-14 -12 -36.5 -15t-40.5 5q-26 12 -36 39t1 53q12 26 39 36.5t53 -1.5q25 -11 34 -41q4 -12 20 0q14 11 24 37l38 103l-189 415q-16 39 -63 39v17h236v-17q-23 0 -29.5 -15.5t-1.5 -30.5l5 -15l106 -226l53 135q3 6 6.5 16.5t8.5 36.5t3 46.5
t-19 36.5t-49 16v17z" />
    <glyph glyph-name="Abreve" unicode="&#x102;" horiz-adv-x="708" 
d="M610 90q7 -17 13.5 -29.5t13.5 -20l11.5 -12t12.5 -7t11 -3t11.5 -1t10.5 -0.5v-17h-286v17q22 0 32.5 11t10.5 26.5t-3.5 31.5t-8.5 27l-5 11l-30 73h-237q-1 -4 -3 -10.5t-5.5 -26t-4 -37t4.5 -38.5t16 -36t33.5 -24.5t54.5 -7.5v-17h-246v17q12 1 16.5 2t18.5 12
t27 33.5t36 69t51 114.5l173 456h17zM170 214h228l-119 292zM349 841q116 0 116 73h17q0 -63 -33 -105.5t-100 -42.5q-68 0 -102 42.5t-34 105.5h17q0 -73 119 -73z" />
    <glyph glyph-name="abreve" unicode="&#x103;" horiz-adv-x="527" 
d="M300 103v135q-131 -29 -131 -120q0 -3 0.5 -7.5t4 -15.5t9.5 -20t19.5 -16t31.5 -7q24 0 41 15t25 36zM474 52q21 0 27 17l17 -7q-7 -26 -40 -48.5t-77 -22.5q-4 0 -10 0.5t-22 5t-28.5 12t-24.5 24t-15 39.5q-12 -34 -52.5 -57.5t-92.5 -23.5q-5 0 -12.5 0.5t-27.5 6
t-35 15t-27.5 30.5t-12.5 50q0 70 56 102q35 20 163 51q25 6 40 10v62q0 78 -37.5 112.5t-89.5 7.5q-30 -15 -32 -29q0 -5 3 -5q24 -3 37 -22q13 -20 9 -42.5t-24 -36.5q-19 -13 -42.5 -8.5t-36.5 23.5q-20 31 -3 60q21 36 49 55q13 10 29 18q20 11 44.5 16t38.5 5l14 -1
q92 0 129.5 -52t37.5 -148v-149v-7.5t2.5 -16.5t7 -21.5t14.5 -17t24 -7.5zM265 631q116 0 116 73h17q0 -63 -33 -105.5t-100 -42.5q-68 0 -102 42.5t-34 105.5h17q0 -73 119 -73z" />
    <glyph glyph-name="Aogonek" unicode="&#x104;" horiz-adv-x="708" 
d="M610 90q7 -17 13.5 -29.5t13.5 -20l11.5 -12t12.5 -7t11 -3t11.5 -1t10.5 -0.5v-17h-62q-84 -49 -69 -107q5 -19 20.5 -28t28.5 -8l13 1q30 5 30 35h17q0 -20 -2.5 -32.5t-17 -27t-41.5 -19.5q-28 -4 -47.5 -0.5t-32 11.5t-19 16t-8.5 15l-3 6q-24 86 85 138h-178v17
q22 0 32.5 11t10.5 26.5t-3.5 31.5t-8.5 27l-5 11l-30 73h-237q-1 -4 -3 -10.5t-5.5 -26t-4 -37t4.5 -38.5t16 -36t33.5 -24.5t54.5 -7.5v-17h-246v17q12 1 16.5 2t18.5 12t27 33.5t36 69t51 114.5l173 456h17zM170 214h228l-119 292z" />
    <glyph glyph-name="aogonek" unicode="&#x105;" horiz-adv-x="527" 
d="M474 52q21 0 27 17l17 -7q-6 -23 -31 -43t-61 -26q-69 -46 -56 -99q5 -19 20.5 -28t28.5 -8l13 1q30 5 30 35h17q0 -20 -2.5 -32.5t-17 -27t-41.5 -19.5q-28 -4 -47.5 -0.5t-32 11.5t-19 16t-9.5 14l-2 7q-21 81 71 131q-70 13 -78 78q-12 -34 -52.5 -57.5t-92.5 -23.5
q-5 0 -12.5 0.5t-27.5 6t-35 15t-27.5 30.5t-12.5 50q0 70 56 102q35 20 163 51q25 6 40 10v62q0 78 -37.5 112.5t-89.5 7.5q-30 -15 -32 -29q0 -5 3 -5q24 -3 37 -22q13 -20 9 -42.5t-24 -36.5q-19 -13 -42.5 -8.5t-36.5 23.5q-20 31 -3 60q21 36 49 55q13 10 29 18
q20 11 44.5 16t38.5 5l14 -1q92 0 129.5 -52t37.5 -148v-149v-7.5t2.5 -16.5t7 -21.5t14.5 -17t24 -7.5zM300 103v135q-131 -29 -131 -120q0 -3 0.5 -7.5t4 -15.5t9.5 -20t19.5 -16t31.5 -7q24 0 41 15t25 36z" />
    <glyph glyph-name="Cacute" unicode="&#x106;" horiz-adv-x="687" 
d="M615 210h17l14 -157q-53 -35 -113.5 -48.5t-145.5 -13.5q-157 0 -252 103.5t-95 257.5t95 257.5t252 103.5q184 0 259 -61l-14 -157h-17q-44 106 -95 153.5t-133 47.5q-59 0 -93.5 -28.5t-54 -105t-19.5 -210.5t20 -211t55 -105t92 -28q86 0 146.5 57.5t81.5 144.5z
M223 735l169 163l112 -35l-244 -128h-37z" />
    <glyph glyph-name="cacute" unicode="&#x107;" horiz-adv-x="500" 
d="M450 129l14 -9q-13 -48 -64 -88.5t-135 -40.5q-94 0 -157 74.5t-63 167.5q0 94 69 166t190 72q81 0 131 -44q31 -28 20 -67q-8 -27 -31.5 -41t-50.5 -7t-41 31t-6 50q6 26 31 40q9 4 -9 12q-17 9 -44 9q-17 0 -36.5 -8.5t-43 -28t-38.5 -63t-15 -103.5q0 -143 127 -171
q37 -8 86 8t66 41zM141 541l169 163l112 -35l-244 -128h-37z" />
    <glyph glyph-name="Ccaron" unicode="&#x10c;" horiz-adv-x="687" 
d="M615 210h17l14 -157q-53 -35 -113.5 -48.5t-145.5 -13.5q-157 0 -252 103.5t-95 257.5t95 257.5t252 103.5q184 0 259 -61l-14 -157h-17q-44 106 -95 153.5t-133 47.5q-59 0 -93.5 -28.5t-54 -105t-19.5 -210.5t20 -211t55 -105t92 -28q86 0 146.5 57.5t81.5 144.5z
M226 922h36l119 -77l118 77h37l-155 -187z" />
    <glyph glyph-name="ccaron" unicode="&#x10d;" horiz-adv-x="500" 
d="M450 129l14 -9q-13 -48 -64 -88.5t-135 -40.5q-94 0 -157 74.5t-63 167.5q0 94 69 166t190 72q81 0 131 -44q31 -28 20 -67q-8 -27 -31.5 -41t-50.5 -7t-41 31t-6 50q6 26 31 40q9 4 -9 12q-17 9 -44 9q-17 0 -36.5 -8.5t-43 -28t-38.5 -63t-15 -103.5q0 -143 127 -171
q37 -8 86 8t66 41zM128 704h36l119 -77l118 77h37l-155 -187z" />
    <glyph glyph-name="Dcaron" unicode="&#x10e;" horiz-adv-x="768" 
d="M301 704q65 0 120.5 -8.5t112.5 -32.5t96.5 -62t64.5 -102.5t25 -149.5q0 -349 -419 -349h-264v17q32 0 53.5 34.5t21.5 85.5v429q0 48 -21.5 84.5t-53.5 36.5v17h264zM301 17q30 0 53 3.5t53.5 13.5t53 33t42.5 57.5t31 92t11 132.5t-11 133t-31 93.5t-42.5 59t-53 34.5
t-54 14.5t-52.5 3.5h-44v-670h44zM171 922h36l119 -77l118 77h37l-155 -187z" />
    <glyph glyph-name="dcaron" unicode="&#x10f;" horiz-adv-x="729" 
d="M599 704h97q0 -38 -13.5 -73.5t-33 -59t-39 -41.5t-32.5 -26l-14 -9l-13 15q5 4 13 15t21.5 60.5t13.5 118.5zM399 146v141q0 87 -35 127t-84 40q-56 0 -80.5 -47.5t-24.5 -159.5q0 -120 26.5 -170.5t87.5 -50.5q50 0 80 33.5t30 86.5zM523 97q0 -37 10 -49.5t41 -16.5
v-17l-147 -22q-12 -2 -19 2.5t-8 9.5l-1 6v62q-22 -40 -66.5 -60.5t-86.5 -20.5q-89 0 -151 66.5t-62 180.5q0 116 67.5 174.5t178.5 58.5q69 0 120 -30v191q0 26 -10 37.5t-41 22.5v17l175 37v-649z" />
    <glyph glyph-name="Dcroat" unicode="&#x110;" horiz-adv-x="768" 
d="M38 348v17h74v201q0 48 -21.5 84.5t-53.5 36.5v17h264q65 0 120.5 -8.5t112.5 -32.5t96.5 -62t64.5 -102.5t25 -149.5q0 -349 -419 -349h-264v17q32 0 53.5 34.5t21.5 85.5v211h-74zM301 17q30 0 53 3.5t53.5 13.5t53 33t42.5 57.5t31 92t11 132.5t-11 133t-31 93.5
t-42.5 59t-53 34.5t-54 14.5t-52.5 3.5h-44v-322h146v-17h-146v-331h44z" />
    <glyph glyph-name="dcroat" unicode="&#x111;" horiz-adv-x="611" 
d="M297 568v17h102v47q0 26 -10 37.5t-41 22.5v17l175 37v-161h89v-17h-89v-471q0 -37 10 -49.5t41 -16.5v-17l-147 -22q-12 -2 -19 2.5t-8 9.5l-1 6v62q-22 -40 -66.5 -60.5t-86.5 -20.5q-89 0 -151 66.5t-62 180.5q0 116 67.5 174.5t178.5 58.5q69 0 120 -30v127h-102z
M399 146v141q0 87 -35 127t-84 40q-56 0 -80.5 -47.5t-24.5 -159.5q0 -120 26.5 -170.5t87.5 -50.5q50 0 80 33.5t30 86.5z" />
    <glyph glyph-name="Eogonek" unicode="&#x118;" horiz-adv-x="653" 
d="M573 218h17v-218h-39q-87 -49 -72 -109q5 -19 20.5 -28t28.5 -8l13 1q30 5 30 35h17q0 -20 -2.5 -32.5t-17 -27t-41.5 -19.5q-28 -4 -47.5 -0.5t-32 11.5t-19 16t-8.5 15l-3 6q-23 88 89 140h-479v17q58 0 58 120v429q0 121 -58 121v17h550v-190h-17q-6 48 -39 84t-75 52
t-83 25.5t-69 10.5l-28 1h-36v-323h36q6 0 16.5 0.5t37 6t47.5 15.5t39.5 31.5t21.5 50.5h17v-225h-17q-3 29 -20.5 50.5t-41 31.5t-46.5 15.5t-38 5.5l-16 1h-36v-330h36q6 0 15.5 0.5t38 4.5t54.5 11t60 22t60 35t48 53.5t31 74.5z" />
    <glyph glyph-name="eogonek" unicode="&#x119;" horiz-adv-x="524" 
d="M270 471q109 0 161 -57t52 -174h-318q6 -71 39 -111.5t86 -52.5q43 -10 92 5.5t67 49.5l17 -9q-14 -45 -58.5 -83.5t-120.5 -45.5q-73 -47 -60 -102q5 -19 20.5 -28t28.5 -8l13 1q30 5 30 35h17q0 -20 -2.5 -32.5t-17 -27t-41.5 -19.5q-28 -4 -47.5 -0.5t-32 11.5t-19 16
t-8.5 15l-3 6q-22 84 73 133q-88 8 -145 78.5t-57 157.5q0 106 65.5 174t168.5 68zM165 257h196q0 92 -27 144.5t-69 52.5q-43 0 -71.5 -60.5t-28.5 -136.5z" />
    <glyph glyph-name="Ecaron" unicode="&#x11a;" horiz-adv-x="653" 
d="M573 218h17v-218h-563v17q58 0 58 120v429q0 121 -58 121v17h550v-190h-17q-6 48 -39 84t-75 52t-83 25.5t-69 10.5l-28 1h-36v-323h36q6 0 16.5 0.5t37 6t47.5 15.5t39.5 31.5t21.5 50.5h17v-225h-17q-3 29 -20.5 50.5t-41 31.5t-46.5 15.5t-38 5.5l-16 1h-36v-330h36
q6 0 15.5 0.5t38 4.5t54.5 11t60 22t60 35t48 53.5t31 74.5zM171 922h36l119 -77l118 77h37l-155 -187z" />
    <glyph glyph-name="ecaron" unicode="&#x11b;" horiz-adv-x="524" 
d="M165 257h196q0 92 -27 144.5t-69 52.5q-43 0 -71.5 -60.5t-28.5 -136.5zM270 471q109 0 161 -57t52 -174h-318q6 -71 39 -111.5t86 -52.5q43 -10 92 5.5t67 49.5l17 -9q-15 -50 -67 -90.5t-142 -40.5q-95 0 -158 73t-63 165q0 106 65.5 174t168.5 68zM108 704h36l119 -77
l118 77h37l-155 -187z" />
    <glyph glyph-name="dotlessi" unicode="&#x131;" horiz-adv-x="282" 
d="M203 122q0 -48 8 -73t33 -32v-17h-205v17q26 8 33 33t7 72v222q0 26 -10 40t-41 30v17l175 40v-349z" />
    <glyph glyph-name="Lacute" unicode="&#x139;" horiz-adv-x="667" 
d="M588 217h17v-217h-568v17q32 0 51.5 30.5t19.5 81.5v469q0 44 -22.5 66.5t-56.5 22.5v17h317v-17q-93 0 -93 -89v-581h36q6 0 15.5 0.5t37.5 4.5t54.5 10.5t59.5 21.5t58.5 35.5t46 53.5t27.5 74zM162 735l169 163l112 -35l-244 -128h-37z" />
    <glyph glyph-name="lacute" unicode="&#x13a;" horiz-adv-x="265" 
d="M198 121q0 -47 8 -72.5t32 -31.5v-17h-205v17q26 7 33 32t7 72v506q0 27 -10 40.5t-40 24.5v17l175 37v-625zM-8 764l169 163l112 -35l-244 -128h-37z" />
    <glyph glyph-name="Lcaron" unicode="&#x13d;" horiz-adv-x="667" 
d="M378 704h97q0 -38 -13.5 -73.5t-33 -59t-39 -41.5t-33.5 -26l-13 -9l-13 15q5 4 13 15t21.5 60.5t13.5 118.5zM588 217h17v-217h-568v17q32 0 51.5 30.5t19.5 81.5v469q0 44 -22.5 66.5t-56.5 22.5v17h317v-17q-93 0 -93 -89v-581h36q6 0 15.5 0.5t37.5 4.5t54.5 10.5
t59.5 21.5t58.5 35.5t46 53.5t27.5 74z" />
    <glyph glyph-name="lcaron" unicode="&#x13e;" horiz-adv-x="422" 
d="M269 704h97q0 -38 -13.5 -73.5t-33 -59t-39 -41.5t-32.5 -26l-14 -9l-13 15q5 4 13 15t21.5 60.5t13.5 118.5zM198 121q0 -47 8 -72.5t32 -31.5v-17h-205v17q26 7 33 32t7 72v506q0 27 -10 40.5t-40 24.5v17l175 37v-625z" />
    <glyph glyph-name="Lslash" unicode="&#x141;" horiz-adv-x="676" 
d="M614 218h17v-218h-569v17q31 0 51 34.5t20 86.5v141l-120 -67v20l120 67v299q0 44 -22 66.5t-57 22.5v17h318v-17q-93 0 -93 -89v-217l194 110v-20l-194 -110v-344h36q56 0 102.5 11t76.5 29t53.5 39.5t35.5 42.5t19.5 39t9.5 29z" />
    <glyph glyph-name="lslash" unicode="&#x142;" horiz-adv-x="331" 
d="M11 270v20l90 58v279q0 27 -10 40.5t-40 24.5v17l175 37v-317l89 58v-20l-89 -58v-288q0 -47 8 -72.5t32 -31.5v-17h-205v17q26 7 33 32t7 72v207z" />
    <glyph glyph-name="Nacute" unicode="&#x143;" horiz-adv-x="840" 
d="M520 704h303v-17q-42 0 -73 -24t-45 -59t-22 -70t-9 -60v-24v-450h-53l-437 549v-294q0 -10 0.5 -26t8 -57t20.5 -72.5t41 -57t67 -25.5v-17h-304v17q42 0 73 24.5t45 59.5t22 70t9 59l1 25v312l-39 49q-15 19 -29.5 32.5t-24 21t-21 11.5t-16 4.5t-15.5 1t-13 0.5v17
h245l403 -497v243q0 5 -0.5 13.5t-3 33.5t-7 47t-14.5 49.5t-24 47t-37 33t-51 13.5v17zM284 735l169 163l112 -35l-244 -128h-37z" />
    <glyph glyph-name="nacute" unicode="&#x144;" horiz-adv-x="539" 
d="M476 122q0 -48 8 -73.5t33 -31.5v-17h-206v17q26 7 33 32.5t7 72.5v194q0 37 -22 60t-59 23q-30 0 -57.5 -26t-27.5 -56v-197q0 -46 8.5 -71t32.5 -32v-17h-205v17q26 7 32.5 31t6.5 72v226q0 26 -9.5 38.5t-40.5 29.5v17l175 40v-107q17 45 66.5 76t98.5 31
q63 0 94.5 -33t31.5 -119v-197zM154 541l169 163l112 -35l-244 -128h-37z" />
    <glyph glyph-name="Ncaron" unicode="&#x147;" horiz-adv-x="840" 
d="M520 704h303v-17q-42 0 -73 -24t-45 -59t-22 -70t-9 -60v-24v-450h-53l-437 549v-294q0 -10 0.5 -26t8 -57t20.5 -72.5t41 -57t67 -25.5v-17h-304v17q42 0 73 24.5t45 59.5t22 70t9 59l1 25v312l-39 49q-15 19 -29.5 32.5t-24 21t-21 11.5t-16 4.5t-15.5 1t-13 0.5v17
h245l403 -497v243q0 5 -0.5 13.5t-3 33.5t-7 47t-14.5 49.5t-24 47t-37 33t-51 13.5v17zM268 922h36l119 -77l118 77h37l-155 -187z" />
    <glyph glyph-name="ncaron" unicode="&#x148;" horiz-adv-x="539" 
d="M476 122q0 -48 8 -73.5t33 -31.5v-17h-206v17q26 7 33 32.5t7 72.5v194q0 37 -22 60t-59 23q-30 0 -57.5 -26t-27.5 -56v-197q0 -46 8.5 -71t32.5 -32v-17h-205v17q26 7 32.5 31t6.5 72v226q0 26 -9.5 38.5t-40.5 29.5v17l175 40v-107q17 45 66.5 76t98.5 31
q63 0 94.5 -33t31.5 -119v-197zM132 704h36l119 -77l118 77h37l-155 -187z" />
    <glyph glyph-name="Ohungarumlaut" unicode="&#x150;" horiz-adv-x="775" 
d="M386 713q159 0 252 -105.5t93 -260.5q0 -154 -92.5 -255t-252.5 -101t-252.5 101t-92.5 255q0 155 93 260.5t252 105.5zM386 8q62 0 97.5 27t55 101.5t19.5 210.5q0 135 -19 212t-55 107t-98 30t-98.5 -30t-56 -107t-19.5 -212t19.5 -210t55.5 -102t99 -27zM235 735
l169 163l112 -35l-244 -128h-37zM415 735l169 163l112 -35l-244 -128h-37z" />
    <glyph glyph-name="ohungarumlaut" unicode="&#x151;" horiz-adv-x="556" 
d="M279 471q111 0 174.5 -68.5t63.5 -171.5t-63.5 -171.5t-174.5 -68.5q-110 0 -174 69t-64 171q0 103 64 171.5t174 68.5zM279 8q54 0 72 44t18 179t-18 179t-72 44t-72.5 -44t-18.5 -179t18.5 -179t72.5 -44zM112 541l169 163l112 -35l-244 -128h-37zM292 541l169 163
l112 -35l-244 -128h-37z" />
    <glyph glyph-name="OE" unicode="&#x152;" horiz-adv-x="1004" 
d="M476 137v429q0 46 -8.5 74.5t-27.5 39.5t-32.5 13.5t-39.5 2.5q-90 0 -122 -72t-32 -277q0 -140 14.5 -211.5t46 -99.5t93.5 -28q14 0 21.5 0.5t21 2.5t21 7t17 14.5t15 22.5t9 34t3.5 48zM657 17q5 0 13 0.5t33 4t47.5 10.5t52 22t52.5 35.5t42 54t27 74.5h17v-218h-498
q-49 -9 -75 -9q-158 0 -241.5 99.5t-83.5 256.5q0 158 84 262t241 104q33 0 72 -9h488v-190h-17q-7 37 -25 66t-41 46.5t-49 30.5t-50.5 18.5t-44.5 8.5t-32 3h-12h-36v-323h36q5 0 12.5 0.5t27 5.5t35.5 15t30 31.5t17 51.5h17v-225h-17q-3 30 -16.5 51.5t-31 31.5
t-34.5 15t-29 5l-11 1h-36v-330h36z" />
    <glyph glyph-name="oe" unicode="&#x153;" horiz-adv-x="782" 
d="M466 255h163q0 199 -78 199q-43 0 -64 -58.5t-21 -140.5zM329 229q0 138 -13 181.5t-57 43.5q-47 0 -59 -42t-12 -183t12 -181t59 -40q46 0 58 40.5t12 180.5zM710 131l19 -10q-7 -24 -17 -43t-29.5 -41t-52.5 -34t-78 -12q-76 0 -143 65q-59 -65 -150 -65
q-108 0 -163 66.5t-55 171.5q0 106 55 174t163 68q97 0 151 -69q69 69 141 69q100 0 145 -57t45 -176h-275q3 -73 29 -112t77 -50q38 -9 78 9t60 46z" />
    <glyph glyph-name="Racute" unicode="&#x154;" horiz-adv-x="728" 
d="M604 115q9 -35 34 -58.5t45.5 -31t37.5 -8.5v-17h-92h-52.5t-39 3.5l-30 4.5t-21 12.5t-17 17l-13 28t-14 37t-15 51.5l-20.5 64q-15 46 -46 71.5t-55 28.5l-24 3h-47v-200q0 -49 20.5 -76.5t53.5 -27.5v-17h-291v17q33 0 52.5 27t19.5 77v477q0 89 -72 89v17h248
q66 0 112.5 -3.5t92 -15.5t73 -32.5t44.5 -55.5t17 -84q0 -87 -49.5 -128.5t-145.5 -52.5q56 6 108 -43.5t86 -173.5zM266 338q21 0 32 0.5t29 2t28 4.5t24 9t21.5 14.5t17 22t14 30.5t7.5 40t3 52q0 36 -5 64t-12 46.5t-22 31t-26.5 19t-34 9.5t-36 3.5t-40.5 0.5h-31v-349
h31zM183 735l169 163l112 -35l-244 -128h-37z" />
    <glyph glyph-name="racute" unicode="&#x155;" horiz-adv-x="425" 
d="M308 466q15 7 40 3.5t41 -16.5q23 -20 25 -51.5t-18 -53.5q-20 -23 -50.5 -25.5t-54.5 17.5q-23 21 -23 49q0 10 -21 0q-30 -16 -57 -59v-208q0 -48 8 -73t33 -32v-17h-207v17q26 8 33 32.5t7 72.5v222q0 26 -10 40.5t-40 29.5v17l176 40v-113q24 38 50 63t37.5 31
t30.5 14zM82 541l169 163l112 -35l-244 -128h-37z" />
    <glyph glyph-name="Rcaron" unicode="&#x158;" horiz-adv-x="728" 
d="M604 115q9 -35 34 -58.5t45.5 -31t37.5 -8.5v-17h-92h-52.5t-39 3.5l-30 4.5t-21 12.5t-17 17l-13 28t-14 37t-15 51.5l-20.5 64q-15 46 -46 71.5t-55 28.5l-24 3h-47v-200q0 -49 20.5 -76.5t53.5 -27.5v-17h-291v17q33 0 52.5 27t19.5 77v477q0 89 -72 89v17h248
q66 0 112.5 -3.5t92 -15.5t73 -32.5t44.5 -55.5t17 -84q0 -87 -49.5 -128.5t-145.5 -52.5q56 6 108 -43.5t86 -173.5zM266 338q21 0 32 0.5t29 2t28 4.5t24 9t21.5 14.5t17 22t14 30.5t7.5 40t3 52q0 36 -5 64t-12 46.5t-22 31t-26.5 19t-34 9.5t-36 3.5t-40.5 0.5h-31v-349
h31zM150 922h36l119 -77l118 77h37l-155 -187z" />
    <glyph glyph-name="rcaron" unicode="&#x159;" horiz-adv-x="425" 
d="M308 466q15 7 40 3.5t41 -16.5q23 -20 25 -51.5t-18 -53.5q-20 -23 -50.5 -25.5t-54.5 17.5q-23 21 -23 49q0 10 -21 0q-30 -16 -57 -59v-208q0 -48 8 -73t33 -32v-17h-207v17q26 8 33 32.5t7 72.5v222q0 26 -10 40.5t-40 29.5v17l176 40v-113q24 38 50 63t37.5 31
t30.5 14zM45 705h36l119 -77l118 77h37l-155 -187z" />
    <glyph glyph-name="Sacute" unicode="&#x15a;" horiz-adv-x="616" 
d="M416 377q67 -44 104 -93t41.5 -103t-33.5 -108q-2 -3 -6 -8.5t-21 -20t-38 -25t-59.5 -19.5t-83.5 -9q-86 0 -154.5 15.5t-93.5 31.5l-26 15v192h17l12 -33t17 -39.5t25.5 -47.5t33.5 -42t44.5 -39.5t55 -24.5t69.5 -11q39 0 64.5 24.5t31 59t-14 76.5t-63.5 74l-154 97
q-229 144 -112 298q2 3 6 8t21 18.5t38.5 23.5t59.5 18t82 8q76 0 140.5 -12t90.5 -24l26 -12v-168h-17q-8 22 -17 41.5t-29.5 50.5t-45 53t-64 38t-84.5 16q-40 0 -66 -22t-32 -54t14.5 -71.5t66.5 -69.5zM166 735l169 163l112 -35l-244 -128h-37z" />
    <glyph glyph-name="sacute" unicode="&#x15b;" horiz-adv-x="444" 
d="M303 259q67 -42 86.5 -101t-17.5 -113q-4 -6 -13.5 -15t-45.5 -24t-81 -15q-54 0 -99 11.5t-63 23.5l-19 11v126h17q1 -2 6 -15.5l7.5 -20t9.5 -21.5t13.5 -24l16 -22t20.5 -21t24.5 -16t30.5 -11.5t36 -3.5q35 0 50.5 24.5t4 58t-47.5 57.5l-101 61q-73 44 -91 101
t23 111q2 2 5 5.5t15 12t26.5 15t39 12t52.5 5.5q51 0 92.5 -7.5t57.5 -15.5l15 -7v-112h-17q-6 17 -10.5 27t-17.5 31t-27.5 33.5t-39 23t-53.5 10.5q-24 0 -40.5 -13t-20 -32t10 -43t44.5 -44zM99 541l169 163l112 -35l-244 -128h-37z" />
    <glyph glyph-name="Scedilla" unicode="&#x15e;" horiz-adv-x="616" 
d="M416 377q67 -44 104 -93t41.5 -103t-33.5 -108q-2 -3 -6 -8.5t-21 -20t-38 -25t-59.5 -19.5t-83.5 -9h-19l-18 -54q63 15 96.5 -14t28.5 -72q-4 -31 -24 -51t-40.5 -26t-40.5 -6q-47 0 -71 21q-14 11 -11 31q3 13 14 19.5t24 3.5q29 -7 24 -37q-1 -9 -8 -14q-1 -1 0 -3
t8 -3.5t20 -1.5q24 0 37.5 15t12.5 39q0 23 -24.5 50t-73.5 19l29 85q-75 3 -134.5 18.5t-81.5 29.5l-22 13v192h17l12 -33t17 -39.5t25.5 -47.5t33.5 -42t44.5 -39.5t55 -24.5t69.5 -11q39 0 64.5 24.5t31 59t-14 76.5t-63.5 74l-154 97q-229 144 -112 298q2 3 6 8t21 18.5
t38.5 23.5t59.5 18t82 8q76 0 140.5 -12t90.5 -24l26 -12v-168h-17q-8 22 -17 41.5t-29.5 50.5t-45 53t-64 38t-84.5 16q-40 0 -66 -22t-32 -54t14.5 -71.5t66.5 -69.5z" />
    <glyph glyph-name="scedilla" unicode="&#x15f;" horiz-adv-x="444" 
d="M303 259q67 -42 86.5 -101t-17.5 -113q-4 -6 -13.5 -15t-45.5 -24t-81 -15h-7l-18 -54q63 15 96.5 -14t28.5 -72q-4 -31 -24 -51t-40.5 -26t-40.5 -6q-47 0 -71 21q-14 11 -11 31q3 13 14 19.5t24 3.5q29 -7 24 -37q-1 -9 -8 -14q-1 -1 0 -3t8 -3.5t20 -1.5q24 0 37.5 15
t12.5 39q0 23 -24.5 50t-73.5 19l29 85q-47 2 -86 13.5t-55 21.5l-16 10v126h17q1 -2 6 -15.5l7.5 -20t9.5 -21.5t13.5 -24l16 -22t20.5 -21t24.5 -16t30.5 -11.5t36 -3.5q35 0 50.5 24.5t4 58t-47.5 57.5l-101 61q-73 44 -91 101t23 111q2 2 5 5.5t15 12t26.5 15t39 12
t52.5 5.5q51 0 92.5 -7.5t57.5 -15.5l15 -7v-112h-17q-6 17 -10.5 27t-17.5 31t-27.5 33.5t-39 23t-53.5 10.5q-24 0 -40.5 -13t-20 -32t10 -43t44.5 -44z" />
    <glyph glyph-name="Scaron" unicode="&#x160;" horiz-adv-x="616" 
d="M416 377q67 -44 104 -93t41.5 -103t-33.5 -108q-2 -3 -6 -8.5t-21 -20t-38 -25t-59.5 -19.5t-83.5 -9q-86 0 -154.5 15.5t-93.5 31.5l-26 15v192h17l12 -33t17 -39.5t25.5 -47.5t33.5 -42t44.5 -39.5t55 -24.5t69.5 -11q39 0 64.5 24.5t31 59t-14 76.5t-63.5 74l-154 97
q-229 144 -112 298q2 3 6 8t21 18.5t38.5 23.5t59.5 18t82 8q76 0 140.5 -12t90.5 -24l26 -12v-168h-17q-8 22 -17 41.5t-29.5 50.5t-45 53t-64 38t-84.5 16q-40 0 -66 -22t-32 -54t14.5 -71.5t66.5 -69.5zM137 922h36l119 -77l118 77h37l-155 -187z" />
    <glyph glyph-name="scaron" unicode="&#x161;" horiz-adv-x="444" 
d="M64 682h36l119 -77l118 77h37l-155 -187zM303 259q67 -42 86.5 -101t-17.5 -113q-4 -6 -13.5 -15t-45.5 -24t-81 -15q-54 0 -99 11.5t-63 23.5l-19 11v126h17q1 -2 6 -15.5l7.5 -20t9.5 -21.5t13.5 -24l16 -22t20.5 -21t24.5 -16t30.5 -11.5t36 -3.5q35 0 50.5 24.5t4 58
t-47.5 57.5l-101 61q-73 44 -91 101t23 111q2 2 5 5.5t15 12t26.5 15t39 12t52.5 5.5q51 0 92.5 -7.5t57.5 -15.5l15 -7v-112h-17q-6 17 -10.5 27t-17.5 31t-27.5 33.5t-39 23t-53.5 10.5q-24 0 -40.5 -13t-20 -32t10 -43t44.5 -44z" />
    <glyph glyph-name="uni0162" unicode="&#x162;" horiz-adv-x="698" 
d="M19 704h658v-201h-17q-2 50 -25.5 87.5t-56 55t-64 28t-53.5 12.5l-22 1h-19v-566q0 -48 25.5 -76t59.5 -28v-17h-163l-19 -58q63 15 96.5 -14t28.5 -72q-4 -31 -24 -51t-40.5 -26t-40.5 -6q-47 0 -71 21q-14 11 -11 31q3 13 14 19.5t24 3.5q29 -7 24 -37q-1 -9 -8 -14
q-1 -1 0 -3t8 -3.5t20 -1.5q24 0 37.5 15t12.5 39q0 23 -24.5 50t-73.5 19l30 88h-135v17q34 0 59.5 28t25.5 76v566h-19q-9 0 -23 -1.5t-51 -12t-66 -28t-53.5 -55t-26.5 -87.5h-17v201z" />
    <glyph glyph-name="uni0163" unicode="&#x163;" horiz-adv-x="354" 
d="M269 62q39 0 60 35l15 -9q-16 -38 -58 -67.5t-90 -29.5q-12 0 -32 2l-17 -51q63 15 96.5 -14t28.5 -72q-4 -31 -24 -51t-40.5 -26t-40.5 -6q-47 0 -71 21q-14 11 -11 31q3 13 14 19.5t24 3.5q29 -7 24 -37q-1 -9 -8 -14q-1 -1 0 -3t8 -3.5t20 -1.5q24 0 37.5 15t12.5 39
q0 23 -24.5 50t-73.5 19l29 85q-39 9 -58.5 43.5t-19.5 103.5v301h-50l-3 17h53v134l125 21v-155h119l-4 -17h-115v-298q0 -85 74 -85z" />
    <glyph glyph-name="Tcaron" unicode="&#x164;" horiz-adv-x="698" 
d="M19 704h658v-201h-17q-2 50 -25.5 87.5t-56 55t-64 28t-53.5 12.5l-22 1h-19v-566q0 -48 25.5 -76t59.5 -28v-17h-315v17q34 0 59.5 28t25.5 76v566h-19q-9 0 -23 -1.5t-51 -12t-66 -28t-53.5 -55t-26.5 -87.5h-17v201zM194 922h36l119 -77l118 77h37l-155 -187z" />
    <glyph glyph-name="tcaron" unicode="&#x165;" horiz-adv-x="386" 
d="M268 704h97q0 -38 -13.5 -73.5t-33 -59t-39 -41.5t-33.5 -26l-13 -9l-13 15q5 4 13 15t21.5 60.5t13.5 118.5zM269 62q39 0 60 35l15 -9q-16 -38 -58 -67.5t-90 -29.5q-64 0 -95 33.5t-31 119.5v301h-50l-3 17h53v134l125 21v-155h119l-4 -17h-115v-298q0 -85 74 -85z
" />
    <glyph glyph-name="Uring" unicode="&#x16e;" horiz-adv-x="752" 
d="M736 704v-17q-42 0 -73 -15t-45 -37.5t-22 -44.5t-8 -38l-1 -15v-297q0 -61 -17.5 -107.5t-43.5 -72.5t-61.5 -42.5t-65 -21.5t-59.5 -5q-106 0 -177 68.5t-71 186.5v353q0 44 -22.5 66t-57.5 22v17h318v-17q-93 0 -93 -88v-360q0 -86 47.5 -137t120.5 -51q63 0 114 50.5
t51 138.5v297q0 6 -0.5 16t-8 36t-20 46t-40.5 36t-67 16v17h302zM365 935q-23 0 -38.5 -16t-15.5 -39t16 -39t38 -16q23 0 39 16t16 39t-16 39t-39 16zM365 975q40 0 68 -27.5t28 -67.5q0 -39 -28 -67t-68 -28q-39 0 -67.5 28t-28.5 67t28.5 67t67.5 28z" />
    <glyph glyph-name="uring" unicode="&#x16f;" horiz-adv-x="561" 
d="M493 92q0 -35 9 -44t42 -13v-17l-148 -26q-12 -2 -19 3t-8 11l-1 5v88q-18 -42 -70 -75t-99 -33q-63 0 -94.5 33.5t-31.5 119.5v214v26.5t-1.5 17.5t-4.5 14.5l-10 8t-16 7t-24 3.5v17l180 19v-324q0 -83 84 -83q22 0 47 18t40 47v226v12q0 41 -6.5 52.5t-40.5 15.5v17
l172 19v-379zM294 670q-23 0 -38.5 -16t-15.5 -39t16 -39t38 -16q23 0 39 16t16 39t-16 39t-39 16zM294 710q40 0 68 -27.5t28 -67.5q0 -39 -28 -67t-68 -28q-39 0 -67.5 28t-28.5 67t28.5 67t67.5 28z" />
    <glyph glyph-name="Uhungarumlaut" unicode="&#x170;" horiz-adv-x="752" 
d="M736 704v-17q-42 0 -73 -15t-45 -37.5t-22 -44.5t-8 -38l-1 -15v-297q0 -61 -17.5 -107.5t-43.5 -72.5t-61.5 -42.5t-65 -21.5t-59.5 -5q-106 0 -177 68.5t-71 186.5v353q0 44 -22.5 66t-57.5 22v17h318v-17q-93 0 -93 -88v-360q0 -86 47.5 -137t120.5 -51q63 0 114 50.5
t51 138.5v297q0 6 -0.5 16t-8 36t-20 46t-40.5 36t-67 16v17h302zM233 735l169 163l112 -35l-244 -128h-37zM413 735l169 163l112 -35l-244 -128h-37z" />
    <glyph glyph-name="uhungarumlaut" unicode="&#x171;" horiz-adv-x="561" 
d="M493 92q0 -35 9 -44t42 -13v-17l-148 -26q-12 -2 -19 3t-8 11l-1 5v88q-18 -42 -70 -75t-99 -33q-63 0 -94.5 33.5t-31.5 119.5v214v26.5t-1.5 17.5t-4.5 14.5l-10 8t-16 7t-24 3.5v17l180 19v-324q0 -83 84 -83q22 0 47 18t40 47v226v12q0 41 -6.5 52.5t-40.5 15.5v17
l172 19v-379zM123 541l169 163l112 -35l-244 -128h-37zM303 541l169 163l112 -35l-244 -128h-37z" />
    <glyph glyph-name="Ydieresis" unicode="&#x178;" horiz-adv-x="771" 
d="M290 774q-24 0 -41.5 17t-17.5 42q0 24 17.5 41.5t41.5 17.5q25 0 42 -17.5t17 -41.5q0 -25 -17 -42t-42 -17zM478 774q-24 0 -41.5 17t-17.5 42q0 24 17.5 41.5t41.5 17.5q25 0 42.5 -17.5t17.5 -41.5q0 -25 -17.5 -42t-42.5 -17zM458 704h300v-17q-123 0 -236 -221
l-66 -139v-206q0 -48 25.5 -76t59.5 -28v-17h-315v17q34 0 59.5 28t25.5 76v155l-195 333q-20 35 -42.5 54t-35 22t-29.5 3v16h319v-16q-11 0 -17.5 -0.5t-18.5 -6.5t-15 -17t3 -34t25 -56l141 -230l67 139q2 4 5 11.5t9 28.5t9.5 40.5t3 43t-7.5 40.5t-26 28.5t-48 11.5v17
z" />
    <glyph glyph-name="Zacute" unicode="&#x179;" horiz-adv-x="617" 
d="M594 704l-370 -687h47q54 0 106 24.5t88 61t60.5 70.5t33.5 60h18l-25 -233h-528l397 687h-47q-99 0 -185 -54.5t-113 -130.5h-20l19 202h519zM187 735l169 163l112 -35l-244 -128h-37z" />
    <glyph glyph-name="zacute" unicode="&#x17a;" horiz-adv-x="463" 
d="M430 462l-244 -445q158 0 205 135h17l-9 -152h-370l260 445q-172 0 -212 -115h-17l5 132h365zM145 541l169 163l112 -35l-244 -128h-37z" />
    <glyph glyph-name="Zdotaccent" unicode="&#x17b;" horiz-adv-x="617" 
d="M594 704l-370 -687h47q54 0 106 24.5t88 61t60.5 70.5t33.5 60h18l-25 -233h-528l397 687h-47q-99 0 -185 -54.5t-113 -130.5h-20l19 202h519zM392 847q0 -25 -17.5 -42.5t-41.5 -17.5q-25 0 -42.5 17.5t-17.5 42.5q0 24 17.5 41t42.5 17q24 0 41.5 -17t17.5 -41z" />
    <glyph glyph-name="zdotaccent" unicode="&#x17c;" horiz-adv-x="463" 
d="M430 462l-244 -445q158 0 205 135h17l-9 -152h-370l260 445q-172 0 -212 -115h-17l5 132h365zM301 627q0 -25 -17.5 -42.5t-41.5 -17.5q-25 0 -42.5 17.5t-17.5 42.5q0 24 17.5 41t42.5 17q24 0 41.5 -17t17.5 -41z" />
    <glyph glyph-name="Zcaron" unicode="&#x17d;" horiz-adv-x="617" 
d="M594 704l-370 -687h47q54 0 106 24.5t88 61t60.5 70.5t33.5 60h18l-25 -233h-528l397 687h-47q-99 0 -185 -54.5t-113 -130.5h-20l19 202h519zM187 922h36l119 -77l118 77h37l-155 -187z" />
    <glyph glyph-name="zcaron" unicode="&#x17e;" horiz-adv-x="466" 
d="M84 682h36l119 -77l118 77h37l-155 -187zM430 462l-244 -445q158 0 205 135h17l-9 -152h-370l260 445q-172 0 -212 -115h-17l5 132h365z" />
    <glyph glyph-name="florin" unicode="&#x192;" horiz-adv-x="695" 
d="M651 684q20 -33 4 -68q-11 -22 -34.5 -30.5t-45.5 2.5q-23 11 -31 34.5t3 46.5t34 29q7 2 2 10q-7 10 -37 10t-56.5 -55t-37.5 -110l-12 -55l-15 -113h122l-6 -17h-118l-37 -270q-24 -180 -81.5 -259t-160.5 -78q-41 0 -70 16t-40 34q-20 33 -4 68q11 22 35 30.5t46 -2.5
t30 -34.5t-3 -46.5q-10 -22 -35 -29q-8 -2 -2 -9q8 -10 41 -10q28 0 54 54.5t38 109.5l12 55l47 371h-76l2 17h75q19 151 86.5 250.5t163.5 99.5q36 0 66.5 -17t40.5 -34z" />
    <glyph glyph-name="uni0218" unicode="&#x218;" horiz-adv-x="616" 
d="M357 -240q19 28 31 59t11.5 68t-23.5 60q-24 24 -58.5 24t-58.5 -24q-24 -25 -24 -59.5t25 -57.5q20 -20 56 -24q13 -2 2 -35q-14 -44 -56 -76l11 -14q52 28 84 79zM416 377q67 -44 104 -93t41.5 -103t-33.5 -108q-2 -3 -6 -8.5t-21 -20t-38 -25t-59.5 -19.5t-83.5 -9
q-86 0 -154.5 15.5t-93.5 31.5l-26 15v192h17l12 -33t17 -39.5t25.5 -47.5t33.5 -42t44.5 -39.5t55 -24.5t69.5 -11q39 0 64.5 24.5t31 59t-14 76.5t-63.5 74l-154 97q-229 144 -112 298q2 3 6 8t21 18.5t38.5 23.5t59.5 18t82 8q76 0 140.5 -12t90.5 -24l26 -12v-168h-17
q-8 22 -17 41.5t-29.5 50.5t-45 53t-64 38t-84.5 16q-40 0 -66 -22t-32 -54t14.5 -71.5t66.5 -69.5z" />
    <glyph glyph-name="uni0219" unicode="&#x219;" horiz-adv-x="444" 
d="M267 -240q19 28 31 59t11.5 68t-23.5 60q-24 24 -58.5 24t-58.5 -24q-24 -25 -24 -59.5t25 -57.5q20 -20 56 -24q13 -2 2 -35q-14 -44 -56 -76l11 -14q52 28 84 79zM303 259q67 -42 86.5 -101t-17.5 -113q-4 -6 -13.5 -15t-45.5 -24t-81 -15q-54 0 -99 11.5t-63 23.5
l-19 11v126h17q1 -2 6 -15.5l7.5 -20t9.5 -21.5t13.5 -24l16 -22t20.5 -21t24.5 -16t30.5 -11.5t36 -3.5q35 0 50.5 24.5t4 58t-47.5 57.5l-101 61q-73 44 -91 101t23 111q2 2 5 5.5t15 12t26.5 15t39 12t52.5 5.5q51 0 92.5 -7.5t57.5 -15.5l15 -7v-112h-17q-6 17 -10.5 27
t-17.5 31t-27.5 33.5t-39 23t-53.5 10.5q-24 0 -40.5 -13t-20 -32t10 -43t44.5 -44z" />
    <glyph glyph-name="uni021A" unicode="&#x21a;" horiz-adv-x="698" 
d="M377 -240q19 28 31 59t11.5 68t-23.5 60q-24 24 -58.5 24t-58.5 -24q-24 -25 -24 -59.5t25 -57.5q20 -20 56 -24q13 -2 2 -35q-14 -44 -56 -76l11 -14q52 28 84 79zM19 704h658v-201h-17q-2 50 -25.5 87.5t-56 55t-64 28t-53.5 12.5l-22 1h-19v-566q0 -48 25.5 -76
t59.5 -28v-17h-315v17q34 0 59.5 28t25.5 76v566h-19q-9 0 -23 -1.5t-51 -12t-66 -28t-53.5 -55t-26.5 -87.5h-17v201z" />
    <glyph glyph-name="uni021B" unicode="&#x21b;" horiz-adv-x="354" 
d="M231 -240q19 28 31 59t11.5 68t-23.5 60q-24 24 -58.5 24t-58.5 -24q-24 -25 -24 -59.5t25 -57.5q20 -20 56 -24q13 -2 2 -35q-14 -44 -56 -76l11 -14q52 28 84 79zM269 62q39 0 60 35l15 -9q-16 -38 -58 -67.5t-90 -29.5q-64 0 -95 33.5t-31 119.5v301h-50l-3 17h53v134
l125 21v-155h119l-4 -17h-115v-298q0 -85 74 -85z" />
    <glyph glyph-name="circumflex" unicode="&#x2c6;" horiz-adv-x="310" 
d="M310 531h-36l-119 77l-119 -77h-36l155 188z" />
    <glyph glyph-name="caron" unicode="&#x2c7;" horiz-adv-x="312" 
d="M0 720h36l119 -77l118 77h37l-155 -187z" />
    <glyph glyph-name="uni02C9" unicode="&#x2c9;" horiz-adv-x="305" 
d="M330 583h-355v76h355v-76z" />
    <glyph glyph-name="breve" unicode="&#x2d8;" horiz-adv-x="267" 
d="M135 631q116 0 116 73h17q0 -63 -33 -105.5t-100 -42.5q-68 0 -102 42.5t-34 105.5h17q0 -73 119 -73z" />
    <glyph glyph-name="dotaccent" unicode="&#x2d9;" 
d="M199 646q0 -25 -17.5 -42.5t-41.5 -17.5q-25 0 -42.5 17.5t-17.5 42.5q0 24 17.5 41t42.5 17q24 0 41.5 -17t17.5 -41z" />
    <glyph glyph-name="ring" unicode="&#x2da;" 
d="M141 692q-23 0 -38.5 -16t-15.5 -39t16 -39t38 -16q23 0 39 16t16 39t-16 39t-39 16zM141 732q40 0 68 -27.5t28 -67.5q0 -39 -28 -67t-68 -28q-39 0 -67.5 28t-28.5 67t28.5 67t67.5 28z" />
    <glyph glyph-name="ogonek" unicode="&#x2db;" 
d="M247 -12q-45 -24 -65 -53.5t-13 -58.5q5 -19 20.5 -28t28.5 -8l13 1q30 5 30 35h17q0 -20 -2.5 -32.5t-17 -27t-41.5 -19.5q-28 -4 -47.5 -0.5t-32 11.5t-19 16t-8.5 14l-3 7q-15 58 23.5 96t116.5 64v-17z" />
    <glyph glyph-name="tilde" unicode="&#x2dc;" horiz-adv-x="445" 
d="M266 550l-120 43q-20 5 -48 5.5t-59 -14t-43 -39.5l-15 6q20 49 47 80.5t51.5 42t46 14t34.5 0.5l13 -3l119 -44q32 -11 82.5 1.5t68.5 49.5l15 -8q-20 -49 -47.5 -80.5t-51.5 -42t-45.5 -14t-34.5 -0.5z" />
    <glyph glyph-name="hungarumlaut" unicode="&#x2dd;" horiz-adv-x="550" 
d="M87 557l169 163l112 -35l-244 -128h-37zM267 557l169 163l112 -35l-244 -128h-37z" />
    <glyph glyph-name="uni03A9" unicode="&#x3a9;" horiz-adv-x="738" 
d="M692 175h17l-31 -175h-269q5 25 23 71.5l35 91.5t31 121.5t14 160.5q0 73 -8 125t-20.5 80.5t-33 44t-38 19.5t-43.5 4t-43.5 -4t-38 -19.5t-33 -44t-20.5 -80.5t-8 -125q0 -84 14 -160.5t31 -121.5l35 -91.5t23 -71.5h-269l-31 175h17q23 -56 102 -56h113q-3 9 -15 19.5
t-31 25.5t-33 29q-60 63 -83.5 124t-23.5 133q0 124 76 204.5t218 80.5t218 -80.5t76 -204.5q0 -72 -23.5 -133t-83.5 -124q-14 -14 -33 -29t-31 -25.5t-15 -19.5h113q79 0 102 56z" />
    <glyph glyph-name="uni03BC" unicode="&#x3bc;" horiz-adv-x="557" 
d="M487 92q0 -35 9 -44t42 -13v-17l-148 -26q-12 -2 -19 3t-8 11l-1 5v88q-18 -42 -70.5 -75t-99.5 -33v-149q0 -37 10 -50t41 -13v-17l-147 -26q-13 -2 -20 2.5t-8 10.5l-1 6v603v26.5t-1.5 17.5t-4.5 14.5l-10 8t-16 7t-24 3.5v17l180 19v-324q0 -83 84 -83q22 0 47 18
t40 47v226v12q0 41 -6.5 52.5t-40.5 15.5v17l172 19v-379z" />
    <glyph glyph-name="pi" unicode="&#x3c0;" horiz-adv-x="582" 
d="M525 66l16 -9q-5 -29 -28.5 -47.5t-65.5 -18.5q-25 0 -43 10t-26 24.5t-13 29.5t-5 25l-1 10v282h-115l-13 -197q-1 -34 -18.5 -68.5t-41.5 -60.5t-47.5 -47t-39.5 -32l-17 -11l-10 13q44 34 75 98t34 114l13 191q-101 -5 -155 -75l-16 10q2 6 6 16.5t19 36.5t32.5 46.5
t47.5 37.5t63 18h257q61 0 86.5 11.5t29.5 51.5h17q0 -75 -22.5 -114t-91.5 -39v-257q0 -30 10 -47.5t20 -19.5l10 -3q12 0 20 5.5t10 10.5z" />
    <glyph glyph-name="uni2010" unicode="&#x2010;" horiz-adv-x="447" 
d="M379 208h-315v93h315v-93z" />
    <glyph glyph-name="endash" unicode="&#x2013;" horiz-adv-x="561" 
d="M0 286h561v-68h-561v68z" />
    <glyph glyph-name="emdash" unicode="&#x2014;" horiz-adv-x="1055" 
d="M0 286h1055v-68h-1055v68z" />
    <glyph glyph-name="quoteleft" unicode="&#x2018;" horiz-adv-x="268" 
d="M103 653q32 51 84 79l11 -14q-48 -37 -59 -86q-5 -24 5 -25q36 -4 56 -24q25 -23 25 -57.5t-24 -59.5q-24 -24 -58.5 -24t-58.5 24q-23 23 -23.5 60t11.5 68t31 59z" />
    <glyph glyph-name="quoteright" unicode="&#x2019;" horiz-adv-x="273" 
d="M177 522q-32 -51 -84 -79l-11 14q48 37 59 86q5 24 -5 25q-36 4 -56 24q-25 23 -25 57.5t24 59.5q24 24 58.5 24t58.5 -24q23 -23 23.5 -60t-11.5 -68t-31 -59z" />
    <glyph glyph-name="quotesinglbase" unicode="&#x201a;" 
d="M180 -53q-32 -51 -84 -79l-11 14q48 37 59 86q5 24 -5 25q-36 4 -56 24q-25 23 -25 57.5t24 59.5q24 24 58.5 24t58.5 -24q23 -23 23.5 -60t-11.5 -68t-31 -59z" />
    <glyph glyph-name="quotedblleft" unicode="&#x201c;" horiz-adv-x="529" 
d="M94 658q32 51 84 79l11 -14q-48 -37 -59 -86q-5 -24 5 -25q36 -4 56 -24q25 -23 25 -57.5t-24 -59.5q-24 -24 -58.5 -24t-58.5 24q-23 23 -23.5 60t11.5 68t31 59zM344 658q32 51 84 79l11 -14q-48 -37 -59 -86q-5 -24 5 -25q36 -4 56 -24q25 -23 25 -57.5t-24 -59.5
q-24 -24 -58.5 -24t-58.5 24q-23 23 -23.5 60t11.5 68t31 59z" />
    <glyph glyph-name="quotedblright" unicode="&#x201d;" horiz-adv-x="521" 
d="M177 522q-32 -51 -84 -79l-11 14q48 37 59 86q5 24 -5 25q-36 4 -56 24q-25 23 -25 57.5t24 59.5q24 24 58.5 24t58.5 -24q23 -23 23.5 -60t-11.5 -68t-31 -59zM427 522q-32 -51 -84 -79l-11 14q48 37 59 86q5 24 -5 25q-36 4 -56 24q-25 23 -25 57.5t24 59.5
q24 24 58.5 24t58.5 -24q23 -23 23.5 -60t-11.5 -68t-31 -59z" />
    <glyph glyph-name="quotedblbase" unicode="&#x201e;" horiz-adv-x="521" 
d="M175 -53q-32 -51 -84 -79l-11 14q48 37 59 86q5 24 -5 25q-36 4 -56 24q-25 23 -25 57.5t24 59.5q24 24 58.5 24t58.5 -24q23 -23 23.5 -60t-11.5 -68t-31 -59zM425 -53q-32 -51 -84 -79l-11 14q48 37 59 86q5 24 -5 25q-36 4 -56 24q-25 23 -25 57.5t24 59.5
q24 24 58.5 24t58.5 -24q23 -23 23.5 -60t-11.5 -68t-31 -59z" />
    <glyph glyph-name="dagger" unicode="&#x2020;" horiz-adv-x="425" 
d="M212 645q-20 0 -34.5 14.5t-14.5 34.5t14.5 34t34.5 14t34 -14t14 -34t-14 -34.5t-34 -14.5zM122 454q21 -15 39 -44l-5 -4q-10 12 -24 20.5t-22.5 8.5t-10.5 -2q-2 -18 -12 -28q-12 -13 -29 -13t-30 12q-12 13 -12.5 30t12.5 29q12 12 30 12.5t34 -5.5t30 -16zM221 403
q-2 -56 44 -111q-22 -114 -34 -253t-13 -221l-1 -83h-9q0 34 -1 91t-13.5 204.5t-34.5 261.5q20 26 31 53.5t12 42.5l1 15q0 27 -11.5 71t-11.5 71v6.5t2 15t5 18.5t9.5 14.5t15.5 6.5q14 0 22 -15t9 -31l1 -15q0 -26 -11.5 -70t-11.5 -72zM395 463q13 -12 13 -29t-13 -30
q-12 -12 -29 -12t-30 13q-10 10 -12 28q-2 2 -10.5 2t-22.5 -8.5t-24 -20.5l-5 4q18 30 40 44q14 10 29.5 16t33.5 5.5t30 -12.5z" />
    <glyph glyph-name="daggerdbl" unicode="&#x2021;" horiz-adv-x="541" 
d="M333 246q-25 -17 -38.5 -43t-14.5 -43l-2 -17q0 -33 15 -71t15 -70v-8t-2.5 -18t-6 -23t-11.5 -18t-19 -8q-18 0 -28 18.5t-11 37.5l-1 19q0 32 15 69t15 72q0 8 -1.5 20.5t-15.5 40t-39 42.5q25 17 39 43t16 43l1 18q0 32 -15 70t-15 71v8t2.5 18t6 23t12 18t19.5 8
q17 0 27 -19t11 -37l1 -19q0 -33 -15 -70t-15 -71q0 -8 1.5 -20.5t15 -40t38.5 -43.5zM407 422q-3 3 -13 2.5t-28 -10t-30 -24.5l-5 4q20 34 48 54q17 12 36 19.5t42 7t37 -15.5q15 -15 15 -36t-15 -36q-16 -15 -37 -15t-36 15q-14 14 -14 35zM269 616q-25 0 -42.5 17
t-17.5 42t17.5 42.5t42.5 17.5q24 0 41.5 -17.5t17.5 -42.5t-17.5 -42t-41.5 -17zM269 -121q24 0 41.5 -17.5t17.5 -41.5q0 -25 -17.5 -42.5t-41.5 -17.5q-25 0 -42.5 17.5t-17.5 42.5q0 24 17.5 41.5t42.5 17.5zM116 387q-15 -15 -36 -15t-37 15q-15 15 -15 36t15 36
q14 15 37 15.5t42 -7t36 -19.5q26 -18 48 -54l-6 -4q-12 15 -29 24.5t-27 10t-13 -2.5q-2 -22 -15 -35zM421 110q15 16 36 16t37 -16q15 -15 15 -36t-15 -36q-14 -14 -37 -15t-42 6.5t-36 19.5q-31 24 -48 55l5 4q12 -15 30 -25t28 -10.5t13 2.5q0 21 14 35zM131 75
q2 -3 12 -2.5t27.5 10.5t29.5 25l6 -4q-19 -33 -48 -55q-17 -12 -36 -19.5t-42 -6.5t-37 15q-15 15 -15 36t15 36q15 16 36.5 16t36.5 -16q13 -13 15 -35z" />
    <glyph glyph-name="bullet" unicode="&#x2022;" horiz-adv-x="500" 
d="M250 220q-50 0 -86 35.5t-36 85.5q0 51 36 86.5t86 35.5q51 0 86.5 -35.5t35.5 -86.5q0 -50 -35.5 -85.5t-86.5 -35.5z" />
    <glyph glyph-name="ellipsis" unicode="&#x2026;" horiz-adv-x="866" 
d="M255 76q0 -35 -25 -59.5t-60 -24.5t-59.5 24.5t-24.5 59.5t24.5 60t59.5 25t60 -25t25 -60zM520 76q0 -35 -24.5 -59.5t-59.5 -24.5t-60 24.5t-25 59.5t25 60t60 25t59.5 -25t24.5 -60zM786 76q0 -35 -25 -59.5t-60 -24.5t-60 24.5t-25 59.5t25 60t60 25t60 -25t25 -60z
" />
    <glyph glyph-name="perthousand" unicode="&#x2030;" horiz-adv-x="1131" 
d="M127 0l456 704h65l-456 -704h-65zM157 679q138 0 138 -182q0 -83 -31 -129.5t-107 -46.5q-77 0 -108 46.5t-31 129.5q0 182 139 182zM157 338q33 0 41.5 27.5t8.5 131.5q0 103 -9 134t-41 31q-33 0 -42 -30.5t-9 -134.5q0 -102 9 -130.5t42 -28.5zM618 383
q138 0 138 -182q0 -83 -31 -129.5t-107 -46.5q-77 0 -108 46.5t-31 129.5q0 182 139 182zM618 42q33 0 41.5 27.5t8.5 131.5q0 103 -9 134t-41 31q-33 0 -42 -30.5t-9 -134.5q0 -102 9 -130.5t42 -28.5zM957 383q138 0 138 -182q0 -83 -31 -129.5t-107 -46.5
q-77 0 -108 46.5t-31 129.5q0 182 139 182zM957 42q33 0 41.5 27.5t8.5 131.5q0 103 -9 134t-41 31q-33 0 -42 -30.5t-9 -134.5q0 -102 9 -130.5t42 -28.5z" />
    <glyph glyph-name="guilsinglleft" unicode="&#x2039;" horiz-adv-x="339" 
d="M281 505v-39l-123 -200l123 -194v-39l-231 233z" />
    <glyph glyph-name="guilsinglright" unicode="&#x203a;" horiz-adv-x="339" 
d="M48 466v39l231 -239l-231 -233v39l123 194z" />
    <glyph glyph-name="fraction" unicode="&#x2044;" horiz-adv-x="351" 
d="M458 734h65l-605 -734h-64z" />
    <glyph glyph-name="Euro" unicode="&#x20ac;" horiz-adv-x="623" 
d="M406 696q-78 0 -107 -58t-34 -216h226l-13 -17h-214v-53v-52h210l-12 -17h-197q5 -158 34 -216.5t107 -58.5q65 0 103 44.5t38 111.5h17v-133q-53 -40 -158 -40q-247 0 -282 292h-102l12 17h88q-3 25 -3 52q0 23 3 53h-100l12 17h90q37 291 282 291q62 0 94.5 -8.5
t63.5 -31.5v-133h-17q0 68 -37 112t-104 44z" />
    <glyph glyph-name="afii61289" unicode="&#x2113;" horiz-adv-x="359" 
d="M329 96l16 -5q-3 -42 -36 -71t-70 -29q-32 0 -57 8t-48.5 28t-36 61t-12.5 101v32l-63 -48v52l63 50v205q0 73 14 128t36.5 83.5t49 40t52.5 4.5t47 -29q35 -37 45 -107.5t-9 -143t-62 -113.5l-50 -47l-2 -113q-5 -74 15.5 -107t59.5 -28q35 8 48 48zM209 503v-152l26 25
q48 46 63 115.5t5 122.5t-29 79q-26 34 -43 -2q-22 -43 -22 -188z" />
    <glyph glyph-name="trademark" unicode="&#x2122;" horiz-adv-x="720" 
d="M13 704h268v-82h-17q0 29 -20 45t-40 18l-20 2h-7v-210q0 -20 10 -31.5t24 -11.5v-17h-128v17q14 0 24 11.5t10 31.5v210h-7q-3 0 -8.5 -0.5t-19.5 -4t-24.5 -9.5t-19 -19.5t-8.5 -31.5h-17v82zM662 476q0 -20 10.5 -31t25.5 -11v-17h-123v17q29 0 29 42v177l-100 -239
h-17l-106 238v-123q1 -1 0 -10t1.5 -23.5t6.5 -28t15 -23.5t27 -10v-17h-123v17q27 0 41 24t15 48v23v144q-10 14 -42 14v17h103l95 -205l84 205h90v-17q-32 0 -32 -36v-175z" />
    <glyph glyph-name="Omega" unicode="&#x2126;" horiz-adv-x="739" 
d="M692 175h17l-31 -175h-269q5 25 23 71.5l35 91.5t31 121.5t14 160.5q0 73 -8 125t-20.5 80.5t-33 44t-38 19.5t-43.5 4t-43.5 -4t-38 -19.5t-33 -44t-20.5 -80.5t-8 -125q0 -84 14 -160.5t31 -121.5l35 -91.5t23 -71.5h-269l-31 175h17q23 -56 102 -56h113q-3 9 -15 19.5
t-31 25.5t-33 29q-60 63 -83.5 124t-23.5 133q0 124 76 204.5t218 80.5t218 -80.5t76 -204.5q0 -72 -23.5 -133t-83.5 -124q-14 -14 -33 -29t-31 -25.5t-15 -19.5h113q79 0 102 56z" />
    <glyph glyph-name="estimated" unicode="&#x212e;" horiz-adv-x="892" 
d="M180 605v-207h536v202q-112 101 -271 101q-154 0 -265 -96zM445 735q171 0 292 -108t121 -260h-678v-238q109 -95 265 -95q163 0 276 106h48q-58 -66 -142.5 -103t-181.5 -37q-171 0 -292 107.5t-121 259.5t121 260t292 108z" />
    <glyph glyph-name="partialdiff" unicode="&#x2202;" horiz-adv-x="572" 
d="M263 744q133 0 207.5 -111.5t58.5 -300.5q-13 -162 -80 -251.5t-191 -89.5q-109 0 -167.5 59.5t-49.5 176.5q4 47 15.5 86t33 74t59 55t87.5 20q43 0 90.5 -24.5t60.5 -72.5q11 138 -3 220.5t-43.5 112t-77.5 29.5q-59 0 -104 -51t-44 -108l-20 -7l-34 107q65 76 202 76z
M258 8q96 0 125 322q-10 34 -41 58.5t-56 24.5q-42 0 -71.5 -53.5t-38.5 -153.5q-9 -117 9.5 -157.5t72.5 -40.5z" />
    <glyph glyph-name="Delta" unicode="&#x2206;" horiz-adv-x="714" 
d="M375 738l294 -706l-15 -32h-616l-6 26l1 2l287 692zM87 44h422l-211 483z" />
    <glyph glyph-name="product" unicode="&#x220f;" horiz-adv-x="839" 
d="M809 687q-40 0 -68 -25t-28 -74v-539q0 -55 28.5 -86t67.5 -31v-17h-355v17q39 0 67.5 31t28.5 86v537q0 49 -28 75t-68 26h-74q-39 0 -67 -26t-28 -75v-537q0 -55 28.5 -86t66.5 -31v-17h-354v17q39 0 67 31t28 86v539q0 49 -27 74t-68 25v17h783v-17z" />
    <glyph glyph-name="summation" unicode="&#x2211;" horiz-adv-x="680" 
d="M222 687l199 -347l-247 -421h68q300 0 392 249h16l-27 -266h-547l193 338l-248 464h590l22 -231h-17q-30 86 -132.5 150t-212.5 64h-49z" />
    <glyph glyph-name="minus" unicode="&#x2212;" horiz-adv-x="626" 
d="M581 208h-533v93h533v-93z" />
    <glyph glyph-name="uni2215" unicode="&#x2215;" horiz-adv-x="352" 
d="M458 734h65l-605 -734h-64z" />
    <glyph glyph-name="uni2219" unicode="&#x2219;" 
d="M203 298q0 -26 -18.5 -44t-44.5 -18t-44 18t-18 44t18 44.5t44 18.5t44.5 -18.5t18.5 -44.5z" />
    <glyph glyph-name="radical" unicode="&#x221a;" horiz-adv-x="565" 
d="M352 78l137 789l54 -15l-180 -1031l-18 -7l-192 450q-17 40 -45 61t-56 10l-6 15l159 69z" />
    <glyph glyph-name="infinity" unicode="&#x221e;" horiz-adv-x="799" 
d="M626 235q23 23 23 56q0 34 -23 57t-57 23q-35 0 -56 -23l-57 -57l57 -56q24 -24 56 -24q31 0 57 24zM275 235l56 57l-57 56q-21 23 -56 23q-34 0 -57 -23t-23 -57q0 -33 23 -56q26 -24 57 -24t57 24zM688 410q50 -49 50 -118.5t-50 -118.5q-50 -50 -119 -50t-119 50
l-56 56l-57 -56q-50 -50 -119 -50q-71 0 -121 50q-47 49 -46.5 118.5t46.5 119.5q49 49 121 49q69 0 119 -50l57 -56l56 56q50 50 119 50t119 -50z" />
    <glyph glyph-name="integral" unicode="&#x222b;" horiz-adv-x="406" 
d="M373 787q21 -26 8 -60q-8 -21 -28.5 -30t-40.5 0q-21 8 -30 28t-1 41q10 23 30 28q5 1 -4 8q-9 6 -25 6q-64 0 -47 -198l35 -441q16 -186 -22.5 -282.5t-124.5 -96.5q-31 0 -55.5 12t-34.5 25q-20 29 -9 60q8 21 28.5 30t40.5 0q21 -7 30 -28t1 -41q-9 -22 -28 -27
q-8 -3 3 -9q9 -5 25 -5q34 0 45 64q9 50 1 134l-35 440q-16 186 23 283t124 97q30 0 55 -12t36 -26z" />
    <glyph glyph-name="approxequal" unicode="&#x2248;" horiz-adv-x="532" 
d="M312 305l-120 43q-20 5 -48 5.5t-59 -14t-43 -39.5l-15 6q20 49 47 80.5t51.5 42t46 14t34.5 0.5l13 -3l119 -44q32 -11 82.5 1.5t68.5 49.5l15 -8q-20 -49 -47.5 -80.5t-51.5 -42t-45.5 -14t-34.5 -0.5zM312 123l-120 43q-20 5 -48 5.5t-59 -14t-43 -39.5l-15 6
q20 49 47 80.5t51.5 42t46 14t34.5 0.5l13 -3l119 -44q32 -11 82.5 1.5t68.5 49.5l15 -8q-20 -49 -47.5 -80.5t-51.5 -42t-45.5 -14t-34.5 -0.5z" />
    <glyph glyph-name="notequal" unicode="&#x2260;" horiz-adv-x="527" 
d="M480 344h-148l-56 -123h204v-68h-237l-57 -124l-62 28l44 96h-122v68h154l56 123h-210v68h243l62 135l61 -29l-48 -106h116v-68z" />
    <glyph glyph-name="lessequal" unicode="&#x2264;" horiz-adv-x="532" 
d="M47 67h432v-87h-432v87zM220 344l259 -136v-103l-423 216v47l423 217v-105z" />
    <glyph glyph-name="greaterequal" unicode="&#x2265;" horiz-adv-x="532" 
d="M55 67h432v-87h-432v87zM55 208l259 136l-259 136v105l423 -217v-47l-423 -216v103z" />
    <glyph glyph-name="lozenge" unicode="&#x25ca;" horiz-adv-x="559" 
d="M301 733l208 -406l-208 -406h-45l-208 406l208 406h45zM418 327l-140 269l-140 -269l140 -269z" />
    <glyph glyph-name="zero.taboldstyle" unicode="&#xf643;" horiz-adv-x="580" 
d="M295 471q117 0 178.5 -60.5t61.5 -181.5q0 -238 -240 -238q-116 0 -177.5 59.5t-61.5 178.5q0 117 62 179.5t177 62.5zM295 8q59 0 75 41t16 180q0 141 -16 183t-75 42q-60 0 -76 -42t-16 -183q0 -139 16 -180t76 -41z" />
    <glyph glyph-name="one.taboldstyle" unicode="&#xf644;" horiz-adv-x="513" 
d="M204 95v270q0 35 -16 44t-59 9v17l200 36v-376q0 -27 7 -44.5t21 -24t24.5 -8t28.5 -1.5v-17h-300v17q19 0 32 2t29 8.5t24.5 23.5t8.5 44z" />
    <glyph glyph-name="two.taboldstyle" unicode="&#xf645;" horiz-adv-x="537" 
d="M445 174h17l-48 -174h-342l105 111q85 78 112 132.5t19 104.5q-9 53 -54 79.5t-91 6.5q-30 -15 -29 -25q1 -3 4 -3q23 2 40 -15q16 -17 16 -40t-17 -39t-40 -16t-39 17q-23 25 -13 58q14 41 74 79q18 12 60 17.5t88.5 1.5t83 -31t41.5 -75q5 -46 -13 -84.5t-49.5 -63.5
t-63.5 -43t-63.5 -34t-41.5 -26l153 5q61 0 91 57z" />
    <glyph glyph-name="three.taboldstyle" unicode="&#xf646;" horiz-adv-x="554" 
d="M510 -12q3 -51 -12 -94.5t-40.5 -72t-58.5 -48.5t-64.5 -29t-58.5 -9q-67 0 -108 11t-72 39q-15 13 -22.5 34.5t-2.5 42.5q7 31 34 48.5t58 9.5q31 -7 47.5 -34t8.5 -59q-6 -26 -37 -43q-9 -3 7 -14q26 -18 86 -18q48 0 76.5 30.5t35.5 69.5t3 85q-2 18 -10.5 38
t-27.5 46t-58.5 46.5t-93.5 27.5v17q59 18 92 52.5t37 69.5t-7 67t-33 50q-23 19 -58 21.5t-70.5 -16t-53.5 -55.5l-17 4q6 46 27 80.5t46 50t49 24.5t40 10l16 1q42 0 80.5 -17.5t63.5 -49t34 -70.5t-11 -87.5t-68 -95.5q65 -26 102.5 -70.5t40.5 -92.5z" />
    <glyph glyph-name="four.taboldstyle" unicode="&#xf647;" horiz-adv-x="582" 
d="M527 -48h-104v-72q0 -45 6.5 -73t21 -39t26 -13.5t31.5 -2.5v-17h-315v17q20 0 31.5 3t26 13.5t21 37t6.5 69.5v77h-229v17l330 502l44 -9v-440h104v-70zM278 22v269l-142 -216q-12 -19 -15.5 -30.5t2 -16t10.5 -5.5t16 -1h129z" />
    <glyph glyph-name="five.taboldstyle" unicode="&#xf648;" horiz-adv-x="553" 
d="M113 184q92 16 159 6t111.5 -31.5t71.5 -56.5t38 -69t11 -69q0 -109 -72 -169t-181 -60q-98 0 -156 47q-15 13 -22 34.5t-3 43.5q8 31 35.5 47.5t58.5 9.5t47.5 -34.5t9.5 -58.5q-7 -30 -34 -46q-13 -8 3 -17q18 -9 61 -9q49 0 84 16.5t50 41.5t20.5 55t-4.5 57
q-4 13 -11.5 27.5t-24 35t-40 36t-60 30t-84 16t-110.5 -4.5l74 400h346l-43 -131h-307z" />
    <glyph glyph-name="six.taboldstyle" unicode="&#xf649;" horiz-adv-x="592" 
d="M361 471q51 0 89 -21.5t58.5 -57.5t30 -76t9.5 -84q0 -113 -70 -177t-178 -64q-125 0 -190 85t-65 237q0 178 90 289t214 111q53 0 86.5 -21t46.5 -42q9 -15 9 -35t-10 -36q-15 -25 -42.5 -31t-52.5 9q-24 15 -30 43t9 52q16 23 42 28q6 1 -7 7q-18 9 -51 9
q-30 0 -53.5 -12t-45.5 -44t-34.5 -98.5t-12.5 -164.5q36 94 158 94zM300 8q57 0 79 44t22 160q0 98 -26 157.5t-67 59.5q-28 0 -61 -25.5t-44 -68.5q2 -173 22.5 -250t74.5 -77z" />
    <glyph glyph-name="seven.taboldstyle" unicode="&#xf64a;" horiz-adv-x="556" 
d="M81 462h451l-75 -129q-42 -75 -68.5 -153t-37 -161t-13 -137t-2.5 -138h-142q0 148 50 277.5t196 311.5h-273q-27 0 -52.5 -14.5t-40.5 -43.5h-17z" />
    <glyph glyph-name="eight.taboldstyle" unicode="&#xf64b;" horiz-adv-x="574" 
d="M350 427q52 25 52 127q0 77 -34.5 109.5t-83.5 32.5q-42 0 -68 -28.5t-26 -81.5q0 -48 38 -87t122 -72zM409 131q0 29 -13.5 55t-39 47t-46 34t-49.5 28l-42 23q-24 -13 -44.5 -53t-20.5 -107q0 -66 37.5 -108t106.5 -42q50 0 80.5 31.5t30.5 91.5zM539 202
q0 -110 -65.5 -160.5t-175.5 -50.5q-254 0 -254 161q0 61 48 112t109 65q-67 41 -99.5 92t-32.5 102q0 92 60.5 141t154.5 49q93 0 151 -38.5t58 -107.5q0 -49 -33 -92.5t-92 -56.5q73 -37 122 -96.5t49 -119.5z" />
    <glyph glyph-name="nine.taboldstyle" unicode="&#xf64c;" horiz-adv-x="574" 
d="M225 -9q-67 0 -111 37t-60 87.5t-16 110.5q0 125 68 185t180 60q124 0 189.5 -89.5t65.5 -242.5q0 -188 -78 -296t-226 -108q-105 0 -145 67q-10 15 -10 37.5t12 40.5q16 27 46.5 34t57.5 -10q26 -16 33 -47t-10 -57t-48 -31q-5 -1 6 -6q22 -11 58 -11q39 0 63 8t41.5 26
t26 57t12 91.5t3.5 139.5q-33 -83 -158 -83zM286 454q-56 0 -78.5 -46t-22.5 -162q0 -97 25.5 -155t67.5 -58q29 0 61.5 21.5t43.5 63.5q0 162 -22 249t-75 87z" />
    <glyph glyph-name="dollar.taboldstyle" unicode="&#xf653;" horiz-adv-x="594" 
d="M296 8q56 0 87 26t32.5 62.5t-19 77t-58.5 68.5l-42 26v-260zM279 467v229q-40 0 -66 -22t-32 -54t14.5 -71.5t66.5 -69.5zM416 377q67 -44 104 -93t41.5 -103t-33.5 -108q-34 -42 -84 -62t-148 -20v-122h-17v122q-73 4 -131 19.5t-80 29.5l-22 13v192h8
q75 -209 225 -236v270l-95 60q-229 144 -112 298q2 3 6 8t21 18.5t38.5 23.5t59.5 18t82 8v122h17v-122q71 -1 131 -13t85 -24l24 -11v-168h-8q-7 20 -17 40t-30.5 49t-44.5 51t-61 39t-79 20v-240z" />
    <glyph glyph-name="cent.taboldstyle" unicode="&#xf654;" horiz-adv-x="533" 
d="M201 251q0 -136 116 -169v371q-44 -9 -80 -56t-36 -146zM480 129l14 -9q-12 -42 -53 -81t-107 -48v-109h-17v109q-118 0 -180 72t-62 170q0 90 64.5 161t177.5 77v122h17v-122q81 0 131 -44q31 -28 20 -67q-8 -27 -31.5 -41t-50.5 -7t-41 31t-6 50q6 26 31 40q9 4 -9 12
q-17 9 -44 9v-376q37 -5 83 11t63 40z" />
    <glyph glyph-name="dollar.oldstyle" unicode="&#xf724;" horiz-adv-x="594" 
d="M296 8q56 0 87 26t32.5 62.5t-19 77t-58.5 68.5l-42 26v-260zM279 467v229q-40 0 -66 -22t-32 -54t14.5 -71.5t66.5 -69.5zM416 377q67 -44 104 -93t41.5 -103t-33.5 -108q-34 -42 -84 -62t-148 -20v-122h-17v122q-73 4 -131 19.5t-80 29.5l-22 13v192h8
q75 -209 225 -236v270l-95 60q-229 144 -112 298q2 3 6 8t21 18.5t38.5 23.5t59.5 18t82 8v122h17v-122q71 -1 131 -13t85 -24l24 -11v-168h-8q-7 20 -17 40t-30.5 49t-44.5 51t-61 39t-79 20v-240z" />
    <glyph glyph-name="zero.oldstyle" unicode="&#xf730;" horiz-adv-x="580" 
d="M295 471q117 0 178.5 -60.5t61.5 -181.5q0 -238 -240 -238q-116 0 -177.5 59.5t-61.5 178.5q0 117 62 179.5t177 62.5zM295 8q59 0 75 41t16 180q0 141 -16 183t-75 42q-60 0 -76 -42t-16 -183q0 -139 16 -180t76 -41z" />
    <glyph glyph-name="one.oldstyle" unicode="&#xf731;" horiz-adv-x="513" 
d="M204 95v270q0 35 -16 44t-59 9v17l200 36v-376q0 -27 7 -44.5t21 -24t24.5 -8t28.5 -1.5v-17h-300v17q19 0 32 2t29 8.5t24.5 23.5t8.5 44z" />
    <glyph glyph-name="two.oldstyle" unicode="&#xf732;" horiz-adv-x="537" 
d="M445 174h17l-48 -174h-342l105 111q85 78 112 132.5t19 104.5q-9 53 -54 79.5t-91 6.5q-30 -15 -29 -25q1 -3 4 -3q23 2 40 -15q16 -17 16 -40t-17 -39t-40 -16t-39 17q-23 25 -13 58q14 41 74 79q18 12 60 17.5t88.5 1.5t83 -31t41.5 -75q5 -46 -13 -84.5t-49.5 -63.5
t-63.5 -43t-63.5 -34t-41.5 -26l153 5q61 0 91 57z" />
    <glyph glyph-name="three.oldstyle" unicode="&#xf733;" horiz-adv-x="554" 
d="M510 -12q3 -51 -12 -94.5t-40.5 -72t-58.5 -48.5t-64.5 -29t-58.5 -9q-67 0 -108 11t-72 39q-15 13 -22.5 34.5t-2.5 42.5q7 31 34 48.5t58 9.5q31 -7 47.5 -34t8.5 -59q-6 -26 -37 -43q-9 -3 7 -14q26 -18 86 -18q48 0 76.5 30.5t35.5 69.5t3 85q-2 18 -10.5 38
t-27.5 46t-58.5 46.5t-93.5 27.5v17q59 18 92 52.5t37 69.5t-7 67t-33 50q-23 19 -58 21.5t-70.5 -16t-53.5 -55.5l-17 4q6 46 27 80.5t46 50t49 24.5t40 10l16 1q42 0 80.5 -17.5t63.5 -49t34 -70.5t-11 -87.5t-68 -95.5q65 -26 102.5 -70.5t40.5 -92.5z" />
    <glyph glyph-name="four.oldstyle" unicode="&#xf734;" horiz-adv-x="582" 
d="M527 -48h-104v-72q0 -45 6.5 -73t21 -39t26 -13.5t31.5 -2.5v-17h-315v17q20 0 31.5 3t26 13.5t21 37t6.5 69.5v77h-229v17l330 502l44 -9v-440h104v-70zM278 22v269l-142 -216q-12 -19 -15.5 -30.5t2 -16t10.5 -5.5t16 -1h129z" />
    <glyph glyph-name="five.oldstyle" unicode="&#xf735;" horiz-adv-x="553" 
d="M113 184q92 16 159 6t111.5 -31.5t71.5 -56.5t38 -69t11 -69q0 -109 -72 -169t-181 -60q-98 0 -156 47q-15 13 -22 34.5t-3 43.5q8 31 35.5 47.5t58.5 9.5t47.5 -34.5t9.5 -58.5q-7 -30 -34 -46q-13 -8 3 -17q18 -9 61 -9q49 0 84 16.5t50 41.5t20.5 55t-4.5 57
q-4 13 -11.5 27.5t-24 35t-40 36t-60 30t-84 16t-110.5 -4.5l74 400h346l-43 -131h-307z" />
    <glyph glyph-name="six.oldstyle" unicode="&#xf736;" horiz-adv-x="592" 
d="M361 471q51 0 89 -21.5t58.5 -57.5t30 -76t9.5 -84q0 -113 -70 -177t-178 -64q-125 0 -190 85t-65 237q0 178 90 289t214 111q53 0 86.5 -21t46.5 -42q9 -15 9 -35t-10 -36q-15 -25 -42.5 -31t-52.5 9q-24 15 -30 43t9 52q16 23 42 28q6 1 -7 7q-18 9 -51 9
q-30 0 -53.5 -12t-45.5 -44t-34.5 -98.5t-12.5 -164.5q36 94 158 94zM300 8q57 0 79 44t22 160q0 98 -26 157.5t-67 59.5q-28 0 -61 -25.5t-44 -68.5q2 -173 22.5 -250t74.5 -77z" />
    <glyph glyph-name="seven.oldstyle" unicode="&#xf737;" horiz-adv-x="556" 
d="M81 462h451l-75 -129q-42 -75 -68.5 -153t-37 -161t-13 -137t-2.5 -138h-142q0 148 50 277.5t196 311.5h-273q-27 0 -52.5 -14.5t-40.5 -43.5h-17z" />
    <glyph glyph-name="eight.oldstyle" unicode="&#xf738;" horiz-adv-x="574" 
d="M350 427q52 25 52 127q0 77 -34.5 109.5t-83.5 32.5q-42 0 -68 -28.5t-26 -81.5q0 -48 38 -87t122 -72zM409 131q0 29 -13.5 55t-39 47t-46 34t-49.5 28l-42 23q-24 -13 -44.5 -53t-20.5 -107q0 -66 37.5 -108t106.5 -42q50 0 80.5 31.5t30.5 91.5zM539 202
q0 -110 -65.5 -160.5t-175.5 -50.5q-254 0 -254 161q0 61 48 112t109 65q-67 41 -99.5 92t-32.5 102q0 92 60.5 141t154.5 49q93 0 151 -38.5t58 -107.5q0 -49 -33 -92.5t-92 -56.5q73 -37 122 -96.5t49 -119.5z" />
    <glyph glyph-name="nine.oldstyle" unicode="&#xf739;" horiz-adv-x="574" 
d="M225 -9q-67 0 -111 37t-60 87.5t-16 110.5q0 125 68 185t180 60q124 0 189.5 -89.5t65.5 -242.5q0 -188 -78 -296t-226 -108q-105 0 -145 67q-10 15 -10 37.5t12 40.5q16 27 46.5 34t57.5 -10q26 -16 33 -47t-10 -57t-48 -31q-5 -1 6 -6q22 -11 58 -11q39 0 63 8t41.5 26
t26 57t12 91.5t3.5 139.5q-33 -83 -158 -83zM286 454q-56 0 -78.5 -46t-22.5 -162q0 -97 25.5 -155t67.5 -58q29 0 61.5 21.5t43.5 63.5q0 162 -22 249t-75 87z" />
    <glyph glyph-name="cent.oldstyle" unicode="&#xf7a2;" horiz-adv-x="533" 
d="M201 251q0 -136 116 -169v371q-44 -9 -80 -56t-36 -146zM480 129l14 -9q-12 -42 -53 -81t-107 -48v-109h-17v109q-118 0 -180 72t-62 170q0 90 64.5 161t177.5 77v122h17v-122q81 0 131 -44q31 -28 20 -67q-8 -27 -31.5 -41t-50.5 -7t-41 31t-6 50q6 26 31 40q9 4 -9 12
q-17 9 -44 9v-376q37 -5 83 11t63 40z" />
    <glyph glyph-name="fi" unicode="&#xfb01;" horiz-adv-x="591" 
d="M512 113q0 -48 8 -73.5t33 -31.5v-8h-205v8q26 7 32.5 32t6.5 73v250q0 31 -12.5 56.5t-37.5 25.5h-129v-332q0 -47 8.5 -72.5t32.5 -32.5v-8h-205v8q26 8 33 33t7 72v332h-64l-2 17h66v23q0 139 65.5 199.5t201.5 60.5q51 0 90.5 -20t52.5 -43q24 -44 5 -83
q-13 -27 -41.5 -36.5t-55.5 3.5q-27 14 -36.5 42t3.5 55q14 27 42 35q15 4 0 15q-21 15 -60 15q-14 0 -26 -1.5t-35.5 -13t-39.5 -32.5t-29 -65t-13 -105v-49h130h174v-349z" />
    <glyph glyph-name="fl" unicode="&#xfb02;" horiz-adv-x="573" 
d="M520 113q0 -46 8 -68t33 -28v-17h-205v17q26 7 32.5 28.5t6.5 67.5v519q0 49 -35 64q-13 5 -25.5 8t-32.5 3.5t-37 -10.5t-32.5 -31.5t-24.5 -62.5t-9 -101v-40h107l-3 -17h-104v-332q0 -46 8 -67.5t33 -28.5v-17h-206v17q26 8 33 29.5t7 66.5v332h-64l-2 17h66v80
q0 97 50.5 150.5t124.5 52.5q59 0 111 -32l160 33v-633z" />
    <glyph glyph-name="NULL" horiz-adv-x="0" 
 />
    <glyph glyph-name="CR" 
 />
    <glyph glyph-name="two.superior" horiz-adv-x="270" 
d="M207 464h17l-23 -85h-170l104 152q38 65 4 102q-25 26 -59 15q-24 -8 -35 -32l-16 3q3 24 13.5 41.5t23.5 25.5t25.5 12.5t20.5 5.5h9q34 0 56 -22t22 -53q0 -43 -50 -104l-60 -87h77q27 0 41 26z" />
    <glyph glyph-name="one.superior" horiz-adv-x="232" 
d="M150 435q0 -38 40 -38v-17h-147v17q46 0 46 38v174q0 16 -9.5 19.5t-19.5 -1.5l-9 -5l-12 17l95 65h16v-269z" />
    <glyph glyph-name="a.superior" horiz-adv-x="311" 
d="M156 513v64q-69 -16 -69 -57q0 -4 1 -9t9.5 -14t24.5 -9q24 0 34 25zM247 486q8 0 10 10l13 -5q-2 -15 -18 -26t-42 -11q-5 0 -13.5 1t-23 10.5t-16.5 25.5q-5 -15 -27 -26t-49 -11q-7 0 -17 1.5t-26.5 14.5t-16.5 37q0 37 23.5 51t92.5 31q12 3 19 5v31q0 39 -20 54
t-49 2q-14 -7 -13 -12q14 0 20 -11q7 -10 4.5 -22t-12.5 -18q-10 -7 -22 -5t-19 12q-10 13 -2 31q11 25 39 39q11 6 24 8.5t21 2.5l8 -1q49 0 68 -27t19 -77v-78q0 -4 0.5 -10.5t7 -17t17.5 -9.5z" />
    <glyph glyph-name="three.superior" horiz-adv-x="276" 
d="M236 485q3 -55 -33.5 -84t-75.5 -29q-47 0 -80 26q-17 12 -12 35q3 14 15.5 22t26.5 5q14 -4 22 -16.5t5 -26.5q-5 -15 -17 -20q-5 -2 5 -5q11 -4 35 -4q28 0 43 24.5t9 51.5q-11 59 -85 68v18q35 11 49.5 31t10 38.5t-19.5 29.5q-16 14 -39.5 9t-35.5 -30l-17 2
q4 33 24.5 51.5t39.5 20.5l18 2q33 0 58 -20t25 -54t-36 -69q30 -11 46.5 -32.5t18.5 -43.5z" />
    <glyph glyph-name="o.superior" horiz-adv-x="327" 
d="M146 705q119 0 119 -127q0 -69 -29 -96.5t-90 -27.5q-59 0 -88.5 29t-29.5 95q0 69 29.5 98t88.5 29zM146 471q13 0 21 2.5t17 12.5t13 32.5t4 59.5t-4.5 60.5t-13.5 33.5t-17 13t-20 3q-17 0 -26.5 -4.5t-18.5 -30t-9 -75.5q0 -37 4.5 -60t13.5 -32.5t16 -12t20 -2.5z
" />
    </font>
</defs>
</svg>
